[ create a new paste ] login | about

Link: http://codepad.org/FyE7KrKc    [ raw code | fork ]

Plain Text, pasted on Jul 6:
foobar2000 1.3.17 / Dynamic Range Meter 1.1.1
log date: 2018-07-05 18:52:11

--------------------------------------------------------------------------------
Analyzed: Stevie Wonder / Innervisions
--------------------------------------------------------------------------------

DR         Peak         RMS     Duration Track
--------------------------------------------------------------------------------
DR12      -7.24 dB   -21.35 dB      4:37 01-Too High
DR11      -9.51 dB   -23.52 dB      5:24 02-Visions
DR14      -5.47 dB   -22.06 dB      7:23 03-Living For The City
DR13      -8.20 dB   -23.06 dB      4:59 04-Golden Lady
DR13      -6.05 dB   -21.91 dB      3:43 05-Higher Ground
DR13      -6.43 dB   -21.76 dB      4:11 06-Jesus Children Of America
DR11      -9.00 dB   -23.96 dB      3:42 07-All In Love Is Fair
DR12      -7.13 dB   -21.50 dB      4:45 08-Don't You Worry 'Bout A Thing
DR12      -8.20 dB   -23.30 dB      5:34 09-He's Misstra Know-It-All
--------------------------------------------------------------------------------

Number of tracks:  9
Official DR value: DR12

Samplerate:        2822400 Hz / PCM Samplerate: 176400 Hz
Channels:          2
Bits per sample:   1
Bitrate:           5645 kbps
Codec:             DSD64
================================================================================




Create a new paste based on this one


Comments: