[ create a new paste ] login | about

Link: http://codepad.org/Fz6SpMdL    [ raw code | fork ]

Plain Text, pasted on Feb 15:
Exact Audio Copy V1.0 beta 2 from 29. April 2011

EAC extraction logfile from 29. June 2014, 16:00

Rush / Presto [2014 Audio Fidelity SACD AFZ 182]

Used drive  : HL-DT-STDVDRAM GH60N   Adapter: 0  ID: 1

Read mode               : Secure
Utilize accurate stream : Yes
Defeat audio cache      : Yes
Make use of C2 pointers : No

Read offset correction                      : 667
Overread into Lead-In and Lead-Out          : No
Fill up missing offset samples with silence : Yes
Delete leading and trailing silent blocks   : No
Null samples used in CRC calculations       : Yes
Used interface                              : Native Win32 interface for Win NT & 2000

Used output format              : User Defined Encoder
Selected bitrate                : 1024 kBit/s
Quality                         : High
Add ID3 tag                     : No
Command line compressor         : C:\Program Files (x86)\Exact Audio Copy\Flac\flac.exe
Additional command line options : -V -5 -T "artist=%albumartist%" -T "title=%title%" -T "album=%albumtitle%" -T "date=%year%" -T "genre=%genre%" -T "tracknumber=%tracknr%" %source%


TOC of the extracted CD

     Track |   Start  |  Length  | Start sector | End sector 
    ---------------------------------------------------------
        1  |  0:00.00 |  5:01.68 |         0    |    22642   
        2  |  5:01.68 |  4:33.14 |     22643    |    43131   
        3  |  9:35.07 |  4:50.52 |     43132    |    64933   
        4  | 14:25.59 |  5:24.33 |     64934    |    89266   
        5  | 19:50.17 |  4:07.35 |     89267    |   107826   
        6  | 23:57.52 |  5:45.68 |    107827    |   133769   
        7  | 29:43.45 |  4:47.41 |    133770    |   155335   
        8  | 34:31.11 |  3:59.43 |    155336    |   173303   
        9  | 38:30.54 |  4:30.38 |    173304    |   193591   
       10  | 43:01.17 |  4:10.62 |    193592    |   212403   
       11  | 47:12.04 |  5:14.68 |    212404    |   236021   


Range status and errors

Selected range

     Filename C:\EAC\Rush - (1989) Presto [2014 Audio Fidelity SACD AFZ 182]\Rush - Presto [2014 Audio Fidelity SACD AFZ 182].wav

     Peak level 100.0 %
     Extraction speed 2.0 X
     Range quality 100.0 %
     Test CRC 479D2360
     Copy CRC 479D2360
     Copy OK

No errors occurred

 
AccurateRip summary
 
Track  1  not present in database
Track  2  not present in database
Track  3  not present in database
Track  4  not present in database
Track  5  not present in database
Track  6  not present in database
Track  7  not present in database
Track  8  not present in database
Track  9  not present in database
Track 10  not present in database
Track 11  not present in database
 
None of the tracks are present in the AccurateRip database

End of status report

==== Log checksum 52E70BDD67BD8B628ED0D812367E62B4A689AE53A050A9DFBF6D3F73332CEDBE ====



Create a new paste based on this one


Comments: