[ create a new paste ] login | about

Link: http://codepad.org/G2nE9BPm    [ raw code | fork ]

Plain Text, pasted on Jul 9:
Exact Audio Copy V0.99 prebeta 5 from 4. May 2009

EAC extraction logfile from 27. October 2010, 3:10

Ottawan / D.I.S.C.O.

Used drive  : PLEXTOR DVDR   PX-716A   Adapter: 0  ID: 0

Read mode               : Secure
Utilize accurate stream : Yes
Defeat audio cache      : Yes
Make use of C2 pointers : No

Read offset correction                      : 30
Overread into Lead-In and Lead-Out          : Yes
Fill up missing offset samples with silence : Yes
Delete leading and trailing silent blocks   : No
Null samples used in CRC calculations       : Yes
Used interface                              : Native Win32 interface for Win NT & 2000

Used output format              : User Defined Encoder
Selected bitrate                : 1024 kBit/s
Quality                         : High
Add ID3 tag                     : No
Command line compressor         : C:\Program Files (x86)\FLAC\flac.exe
Additional command line options : -8 -V -T "ARTIST=%a" -T "TITLE=%t" -T "ALBUM=%g" -T "DATE=%y" -T "TRACKNUMBER=%n" -T "GENRE=%m" -T "COMMENT=EAC FLAC -8" %s


TOC of the extracted CD

     Track |   Start  |  Length  | Start sector | End sector 
    ---------------------------------------------------------
        1  |  0:00.00 |  3:16.21 |         0    |    14720   
        2  |  3:16.21 |  3:28.31 |     14721    |    30351   
        3  |  6:44.52 |  3:24.41 |     30352    |    45692   
        4  | 10:09.18 |  3:32.17 |     45693    |    61609   
        5  | 13:41.35 |  3:54.19 |     61610    |    79178   
        6  | 17:35.54 |  3:40.50 |     79179    |    95728   
        7  | 21:16.29 |  4:27.07 |     95729    |   115760   
        8  | 25:43.36 |  2:32.48 |    115761    |   127208   
        9  | 28:16.09 |  3:35.13 |    127209    |   143346   
       10  | 31:51.22 |  3:59.63 |    143347    |   161334   
       11  | 35:51.10 |  4:02.64 |    161335    |   179548   
       12  | 39:53.74 |  4:21.16 |    179549    |   199139   
       13  | 44:15.15 |  2:50.14 |    199140    |   211903   
       14  | 47:05.29 |  3:26.48 |    211904    |   227401   
       15  | 50:32.02 |  4:49.46 |    227402    |   249122   


Range status and errors

Selected range

     Filename E:\mtorrent_flac\Ottawan - D.I.S.C.O\Ottawan - D.I.S.C.O..wav

     Peak level 98.8 %
     Range quality 99.9 %
     Test CRC 957FB07D
     Copy CRC 957FB07D
     Copy OK

No errors occurred

 
AccurateRip summary
 
Track  1  accurately ripped (confidence 3)  [38D65A35]
Track  2  accurately ripped (confidence 3)  [55722883]
Track  3  accurately ripped (confidence 3)  [F79826B5]
Track  4  accurately ripped (confidence 3)  [786B13D3]
Track  5  accurately ripped (confidence 3)  [5E2CF54C]
Track  6  accurately ripped (confidence 3)  [FD090D00]
Track  7  accurately ripped (confidence 3)  [6F1E8981]
Track  8  accurately ripped (confidence 3)  [66BEBCC1]
Track  9  accurately ripped (confidence 3)  [6BC0E545]
Track 10  accurately ripped (confidence 3)  [7D04B498]
Track 11  accurately ripped (confidence 3)  [F3CFD0E0]
Track 12  accurately ripped (confidence 3)  [EDFC235C]
Track 13  accurately ripped (confidence 3)  [38D2AD6F]
Track 14  accurately ripped (confidence 3)  [5C934856]
Track 15  accurately ripped (confidence 3)  [D3116D97]
 
All tracks accurately ripped

End of status report



Create a new paste based on this one


Comments: