[ create a new paste ] login | about

Link: http://codepad.org/G8Gxtkja    [ raw code | fork ]

Plain Text, pasted on Nov 2:
Exact Audio Copy V1.1 from 23. June 2015

EAC extraction logfile from 25. October 2016, 21:21

Lou Reed / Berlin

Used drive  : PLEXTOR BD-R  PX-B950SA   Adapter: 1  ID: 1

Read mode               : Secure
Utilize accurate stream : Yes
Defeat audio cache      : Yes
Make use of C2 pointers : No

Read offset correction                      : 6
Overread into Lead-In and Lead-Out          : No
Fill up missing offset samples with silence : Yes
Delete leading and trailing silent blocks   : No
Null samples used in CRC calculations       : Yes
Used interface                              : Native Win32 interface for Win NT & 2000

Used output format : Internal WAV Routines
Sample format      : 44.100 Hz; 16 Bit; Stereo


TOC of the extracted CD

     Track |   Start  |  Length  | Start sector | End sector 
    ---------------------------------------------------------
        1  |  0:00.00 |  3:24.28 |         0    |    15327   
        2  |  3:24.28 |  3:40.04 |     15328    |    31831   
        3  |  7:04.32 |  4:37.68 |     31832    |    52674   
        4  | 11:42.25 |  3:57.22 |     52675    |    70471   
        5  | 15:39.47 |  3:41.70 |     70472    |    87116   
        6  | 19:21.42 |  5:15.08 |     87117    |   110749   
        7  | 24:36.50 |  4:13.43 |    110750    |   129767   
        8  | 28:50.18 |  7:54.30 |    129768    |   165347   
        9  | 36:44.48 |  5:51.37 |    165348    |   191709   
       10  | 42:36.10 |  6:55.59 |    191710    |   222893   


Range status and errors

Selected range

     Filename C:\Lou Reed\2016 RCA & Arista Album Collection (17CD Box Set Sony Music)\1973 Berlin\Lou Reed - Berlin.wav

     Peak level 100.0 %
     Extraction speed 7.1 X
     Range quality 100.0 %
     Test CRC 5ED77D84
     Copy CRC 5ED77D84
     Copy OK

No errors occurred

 
AccurateRip summary
 
Track  1  not present in database
Track  2  not present in database
Track  3  not present in database
Track  4  not present in database
Track  5  not present in database
Track  6  not present in database
Track  7  not present in database
Track  8  not present in database
Track  9  not present in database
Track 10  not present in database
 
None of the tracks are present in the AccurateRip database

End of status report

---- CUETools DB Plugin V2.1.6

[CTDB TOCID: eZwR9st1W7DYIwnuP1RpTtFax7Q-] found
Submit result: eZwR9st1W7DYIwnuP1RpTtFax7Q- has been confirmed
Track | CTDB Status
  1   | (4/4) Accurately ripped
  2   | (4/4) Accurately ripped
  3   | (4/4) Accurately ripped
  4   | (4/4) Accurately ripped
  5   | (4/4) Accurately ripped
  6   | (4/4) Accurately ripped
  7   | (4/4) Accurately ripped
  8   | (4/4) Accurately ripped
  9   | (4/4) Accurately ripped
 10   | (4/4) Accurately ripped


==== Log checksum 6191E36C131F7D05DFBFA3CE7BDE2274E938DB3086B4FBDFF4769249DE8D0391 ====



Create a new paste based on this one


Comments: