[ create a new paste ] login | about

Link: http://codepad.org/GA5Faafp    [ raw code | fork ]

Plain Text, pasted on Mar 29:
Exact Audio Copy V1.0 beta 6 from 9. April 2015

EAC extraction logfile from 8. May 2015, 19:34

Emerson Lake & Palmer / Trilogy CD1 Original

Used drive  : PLEXTOR BD-R  PX-B950SA   Adapter: 1  ID: 1

Read mode               : Secure
Utilize accurate stream : Yes
Defeat audio cache      : Yes
Make use of C2 pointers : No

Read offset correction                      : 6
Overread into Lead-In and Lead-Out          : No
Fill up missing offset samples with silence : Yes
Delete leading and trailing silent blocks   : No
Null samples used in CRC calculations       : Yes
Used interface                              : Native Win32 interface for Win NT & 2000

Used output format : Internal WAV Routines
Sample format      : 44.100 Hz; 16 Bit; Stereo


TOC of the extracted CD

     Track |   Start  |  Length  | Start sector | End sector 
    ---------------------------------------------------------
        1  |  0:00.00 |  6:41.09 |         0    |    30083   
        2  |  6:41.09 |  1:56.20 |     30084    |    38803   
        3  |  8:37.29 |  2:02.40 |     38804    |    47993   
        4  | 10:39.69 |  4:13.35 |     47994    |    67003   
        5  | 14:53.29 |  3:22.73 |     67004    |    82226   
        6  | 18:16.27 |  3:45.47 |     82227    |    99148   
        7  | 22:01.74 |  8:52.02 |     99149    |   139050   
        8  | 30:54.01 |  3:10.68 |    139051    |   153368   
        9  | 34:04.69 |  8:07.40 |    153369    |   189933   


Range status and errors

Selected range

     Filename C:\Emerson Lake & Palmer\1972 Trilogy (2CD + DVD-A Box Set Leadclass Limited 2015)\CD1\Emerson Lake & Palmer - Trilogy CD1 Original.wav

     Peak level 97.0 %
     Extraction speed 6.9 X
     Range quality 100.0 %
     Test CRC 20319D25
     Copy CRC 20319D25
     Copy OK

No errors occurred

 
AccurateRip summary
 
Track  1  not present in database
Track  2  not present in database
Track  3  not present in database
Track  4  not present in database
Track  5  not present in database
Track  6  not present in database
Track  7  not present in database
Track  8  not present in database
Track  9  not present in database
 
None of the tracks are present in the AccurateRip database

End of status report

---- CUETools DB Plugin V2.1.6

[CTDB TOCID: Uyq2Coq2glaHS0MAp0JbqHkU1vg-] found
Submit result: Uyq2Coq2glaHS0MAp0JbqHkU1vg- has been confirmed
Track | CTDB Status
  1   | (12/12) Accurately ripped
  2   | (12/12) Accurately ripped
  3   | (12/12) Accurately ripped
  4   | (12/12) Accurately ripped
  5   | (12/12) Accurately ripped
  6   | (12/12) Accurately ripped
  7   | (12/12) Accurately ripped
  8   | (12/12) Accurately ripped
  9   | (12/12) Accurately ripped


==== Log checksum 1919C534DCD56627DD6F997633B9D0C73C629035FA8B99BFEDB843D0CF9D9F4F ====



Create a new paste based on this one


Comments: