[ create a new paste ] login | about

Link: http://codepad.org/GAI3Oivk    [ raw code | fork ]

Plain Text, pasted on Feb 18:
foobar2000 1.5 / Dynamic Range Meter 1.1.1
log date: 2020-02-18 19:54:18

--------------------------------------------------------------------------------
Analyzed: Queen / A Day At The Races 
--------------------------------------------------------------------------------

DR         Peak         RMS     Duration Track
--------------------------------------------------------------------------------
DR10      -0.29 dB   -12.70 dB      4:46 01-Tie Your Mother Down
DR11      -2.22 dB   -19.08 dB      5:07 02-You Take My Breath Away
DR11      -0.84 dB   -15.26 dB      3:33 03-Long Away
DR10      -0.16 dB   -15.39 dB      4:54 04-The Millionaire Waltz
DR11      -0.06 dB   -13.41 dB      3:24 05-You And I
DR11      -0.81 dB   -14.69 dB      4:55 06-Somebody To Love
DR12      -0.05 dB   -15.74 dB      4:57 07-White Man
DR11      -0.06 dB   -15.19 dB      2:54 08-Good Old-Fashioned Lover Boy
DR12      -2.55 dB   -16.62 dB      3:42 09-Drowse
DR11      -1.43 dB   -18.86 dB      5:51 10-Teo Torriatte (Let Us Cling Together)
--------------------------------------------------------------------------------

Number of tracks:  10
Official DR value: DR11

Samplerate:        96000 Hz
Channels:          2
Bits per sample:   24
Bitrate:           2827 kbps
Codec:             FLAC
================================================================================




Create a new paste based on this one


Comments: