[ create a new paste ] login | about

Link: http://codepad.org/GEfVwetR    [ raw code | fork ]

Plain Text, pasted on Sep 3:
[CUETools log; Date: 9/2/2016 10:08:31 PM; Version: 2.1.5]
[CTDB TOCID: bGHtP_RehSXNlWp78xXk9.B7bEY-] found.
Track | CTDB Status
  1   | (141/143) Accurately ripped
  2   | (142/143) Accurately ripped
  3   | (142/143) Accurately ripped
  4   | (142/143) Accurately ripped
  5   | (142/143) Accurately ripped
  6   | (142/143) Accurately ripped
  7   | (142/143) Accurately ripped
  8   | (142/143) Accurately ripped
  9   | (141/143) Accurately ripped
 10   | (142/143) Accurately ripped
 11   | (143/143) Accurately ripped
 12   | (140/143) Accurately ripped
 13   | (142/143) Accurately ripped
 14   | (138/143) Accurately ripped
 15   | (142/143) Accurately ripped
 16   | (141/143) Accurately ripped
 17   | (139/143) Accurately ripped
 18   | (139/143) Accurately ripped
 19   | (139/143) Accurately ripped
 20   | (138/143) Accurately ripped
[AccurateRip ID: 00373ed7-032f1e32-1b12ba14] found.
Track   [  CRC   |   V2   ] Status
 01     [f1c4911e|83ce7215] (005+009/233) Accurately ripped
 02     [9d4477cd|526756d3] (005+009/233) Accurately ripped
 03     [33792a38|75a9b8bc] (005+009/233) Accurately ripped
 04     [1f0a4ef3|ad6cc103] (005+009/230) Accurately ripped
 05     [add1f4d7|22552bf2] (005+009/231) Accurately ripped
 06     [fb54f209|17301472] (005+010/234) Accurately ripped
 07     [640a7d05|a8127ed3] (005+010/236) Accurately ripped
 08     [58c8abed|990a63f1] (005+010/231) Accurately ripped
 09     [271c7f8b|bbdc23c4] (005+010/236) Accurately ripped
 10     [37526047|f5f4ded2] (005+010/233) Accurately ripped
 11     [ce5eb1b2|de340c11] (005+009/232) Accurately ripped
 12     [7d2e7960|8c46f753] (005+010/234) Accurately ripped
 13     [49a230f1|ae3a8f03] (005+010/233) Accurately ripped
 14     [000a54ec|77f04469] (005+009/225) Accurately ripped
 15     [4b6bb655|6bb4e176] (005+009/230) Accurately ripped
 16     [caa2140b|c631e656] (005+010/232) Accurately ripped
 17     [3a6f2e75|eb4667a1] (005+010/229) Accurately ripped
 18     [140af863|b778a59e] (005+010/224) Accurately ripped
 19     [dd9793c8|c3b25886] (005+010/223) Accurately ripped
 20     [c5a58fd0|a6db9c54] (005+010/216) Accurately ripped
Offsetted by -30:
 01     [97476d36] (005/233) Accurately ripped
 02     [4eb208bb] (005/233) Accurately ripped
 03     [b49611cb] (005/233) Accurately ripped
 04     [8b1194ca] (005/230) Accurately ripped
 05     [b237badb] (004/231) Accurately ripped
 06     [6058fb0f] (004/234) Accurately ripped
 07     [4da8a8d6] (004/236) Accurately ripped
 08     [0de4cea6] (004/231) Accurately ripped
 09     [c346d933] (004/236) Accurately ripped
 10     [777a6c55] (004/233) Accurately ripped
 11     [33552bce] (004/232) Accurately ripped
 12     [e67df54a] (004/234) Accurately ripped
 13     [01bbf30d] (004/233) Accurately ripped
 14     [e5458d20] (004/225) Accurately ripped
 15     [278cfd69] (004/230) Accurately ripped
 16     [80bd0a07] (004/232) Accurately ripped
 17     [a9a3ebb7] (004/229) Accurately ripped
 18     [48ccea71] (004/224) Accurately ripped
 19     [6b803d0e] (004/223) Accurately ripped
 20     [1daa77d4] (003/216) Accurately ripped
Offsetted by 646:
 01     [7d3a2fe6] (109/233) Accurately ripped
 02     [f4eb02b7] (109/233) Accurately ripped
 03     [dc1f4549] (109/233) Accurately ripped
 04     [1137f978] (108/230) Accurately ripped
 05     [0adc08a3] (108/231) Accurately ripped
 06     [7c202fbb] (110/234) Accurately ripped
 07     [65f17c7a] (109/236) Accurately ripped
 08     [68d77d96] (109/231) Accurately ripped
 09     [af040603] (111/236) Accurately ripped
 10     [27273a91] (110/233) Accurately ripped
 11     [d8d66c46] (110/232) Accurately ripped
 12     [2a07737e] (111/234) Accurately ripped
 13     [ab334385] (110/233) Accurately ripped
 14     [eb203448] (106/225) Accurately ripped
 15     [3ec14451] (108/230) Accurately ripped
 16     [794c743f] (111/232) Accurately ripped
 17     [cebb431b] (108/229) Accurately ripped
 18     [d73224ad] (107/224) Accurately ripped
 19     [5438ce3a] (107/223) Accurately ripped
 20     [4d3be99c] (101/216) Accurately ripped
Offsetted by 578:
 01     [38a711b6] (004/233) Accurately ripped
 02     [64f46d5b] (004/233) Accurately ripped
 03     [09fd8843] (004/233) Accurately ripped
 04     [9fc5bdc2] (004/230) Accurately ripped
 05     [36f5eb9b] (003/231) Accurately ripped
 06     [6118442f] (004/234) Accurately ripped
 07     [9f0b5ec4] (004/236) Accurately ripped
 08     [b97aef08] (004/231) Accurately ripped
 09     [bba848b3] (004/236) Accurately ripped
 10     [0de866f5] (004/233) Accurately ripped
 11     [796b810e] (004/232) Accurately ripped
 12     [d477592a] (004/234) Accurately ripped
 13     [5d8fc84d] (004/233) Accurately ripped
 14     [591de6e0] (003/225) Accurately ripped
 15     [75fba129] (003/230) Accurately ripped
 16     [16121947] (003/232) Accurately ripped
 17     [5354f017] (003/229) Accurately ripped
 18     [b52e0511] (003/224) Accurately ripped
 19     [62ae922e] (000/223) No match (V2 was not tested)
 20     [9d470894] (000/216) No match (V2 was not tested)
Offsetted by 640:
 01     [d1878f1e] (000/233) No match (V2 was not tested)
 02     [7ecdb94d] (000/233) No match (V2 was not tested)
 03     [4dfa41ce] (000/233) No match (V2 was not tested)
 04     [756b904d] (000/230) No match (V2 was not tested)
 05     [a556c9d7] (000/231) No match (V2 was not tested)
 06     [90543189] (000/234) No match (V2 was not tested)
 07     [cda11223] (000/236) No match (V2 was not tested)
 08     [ef9ec46f] (000/231) No match (V2 was not tested)
 09     [ce3fb18b] (000/236) No match (V2 was not tested)
 10     [33fc09c7] (000/233) No match (V2 was not tested)
 11     [b9d484b2] (000/232) No match (V2 was not tested)
 12     [0be425e0] (000/234) No match (V2 was not tested)
 13     [9cd203f1] (000/233) No match (V2 was not tested)
 14     [e5c5a5ec] (000/225) No match (V2 was not tested)
 15     [9dfb1f55] (000/230) No match (V2 was not tested)
 16     [9db83f0b] (000/232) No match (V2 was not tested)
 17     [4b5f68f5] (000/229) No match (V2 was not tested)
 18     [ae8c21e3] (000/224) No match (V2 was not tested)
 19     [0a342348] (000/223) No match (V2 was not tested)
 20     [c53ce4d0] (000/216) No match (V2 was not tested)

Track Peak [ CRC32  ] [W/O NULL] [  LOG   ]
 --   98.8 [C4013A3B] [65A6F7EB]   CRC32   
 01   96.6 [E8C34497] [D9AE7E2C]           
 02   96.6 [809F1A87] [3CE1E906]           
 03   91.2 [E3D79E90] [096599DE]           
 04   96.6 [2CD2952D] [0FABBFD8]           
 05   98.8 [05970DB6] [D07878AB]           
 06   98.8 [252D5D65] [EEA5675F]           
 07   98.8 [3DAFA851] [C4AE692D]           
 08   98.8 [2255008D] [221F82C4]           
 09   98.5 [83D18416] [FA6C02A1]           
 10   98.8 [7359EC1E] [905B0D35]           
 11   98.8 [EB418599] [A90FCD62]           
 12   98.8 [F8181222] [356EA371]           
 13   98.8 [87AC8FA9] [E025F89F]           
 14   98.8 [6874289D] [7C96C994]           
 15   97.3 [CB8666A4] [452DF657]           
 16   91.3 [48A58748] [1A449A1A]           
 17   98.8 [DE7E5A07] [2FBF86C6]           
 18   98.8 [00885BC1] [4AC75CEC]           
 19   98.8 [CA6BFEDC] [78A4BE81]           
 20   98.8 [F5F0EFF0] [4A5A05EE]           



Create a new paste based on this one


Comments: