[ create a new paste ] login | about

Link: http://codepad.org/GEv2gkiN    [ raw code | fork ]

Plain Text, pasted on Jul 29:
Exact Audio Copy V1.3 from 2. September 2016

EAC extraction logfile from 23. July 2019, 19:21

Tangerine Dream / Phaedra Out-Takes 1

Used drive  : Optiarc DVD RW AD-7280S   Adapter: 1  ID: 0

Read mode               : Secure
Utilize accurate stream : Yes
Defeat audio cache      : Yes
Make use of C2 pointers : No

Read offset correction                      : 48
Overread into Lead-In and Lead-Out          : No
Fill up missing offset samples with silence : Yes
Delete leading and trailing silent blocks   : No
Null samples used in CRC calculations       : Yes
Used interface                              : Native Win32 interface for Win NT & 2000

Used output format : Internal WAV Routines
Sample format      : 44.100 Hz; 16 Bit; Stereo


TOC of the extracted CD

     Track |   Start  |  Length  | Start sector | End sector 
    ---------------------------------------------------------
        1  |  0:00.00 | 20:34.14 |         0    |    92563   
        2  | 20:34.14 | 11:00.29 |     92564    |   142092   
        3  | 31:34.43 | 20:37.47 |    142093    |   234914   


Range status and errors

Selected range

     Filename C:\Tangerine Dream\2019 In Search Of Hades (18-Disc Box Set Universal Music)\CD02-03 1973 Phaedra Out-Takes\Tangerine Dream - Phaedra Out-Takes 1.wav

     Peak level 98.9 %
     Extraction speed 7.2 X
     Range quality 100.0 %
     Test CRC 90232ED9
     Copy CRC 90232ED9
     Copy OK

No errors occurred

 
AccurateRip summary
 
Track  1  not present in database
Track  2  not present in database
Track  3  not present in database
 
None of the tracks are present in the AccurateRip database

End of status report

---- CUETools DB Plugin V2.1.6

[CTDB TOCID: fYPELfPb5VrJDUqvt43icrbMZks-] found
Submit result: fYPELfPb5VrJDUqvt43icrbMZks- has been confirmed
Track | CTDB Status
  1   | (74/74) Accurately ripped
  2   | (74/74) Accurately ripped
  3   | (71/74) Accurately ripped


==== Log checksum 979EB471BBA358542677552BF34DC792543A55947E45789B127240CF0DEB3BAF ====



Create a new paste based on this one


Comments: