[ create a new paste ] login | about

Link: http://codepad.org/GGA7Yuxw    [ raw code | fork ]

Plain Text, pasted on Jul 11:
[CUETools log; Date: 7/11/2020 7:21:47 AM; Version: 2.1.7]
[CTDB TOCID: HFyM_DF4uw7R1vwmI.Q197RxBFE-] found.
Track | CTDB Status
  1   | (42/42) Accurately ripped
  2   | (42/42) Accurately ripped
  3   | (42/42) Accurately ripped
  4   | (42/42) Accurately ripped
  5   | (42/42) Accurately ripped
  6   | (42/42) Accurately ripped
  7   | (42/42) Accurately ripped
  8   | (42/42) Accurately ripped
  9   | (42/42) Accurately ripped
 10   | (41/42) Accurately ripped
[AccurateRip ID: 00100a0c-007ecf3a-8d09e30a] found.
Track   [  CRC   |   V2   ] Status
 01     [d5cc9628|a40e5f69] (14+16/46) Accurately ripped
 02     [a71e2827|2f065a0f] (14+16/46) Accurately ripped
 03     [971d341a|53f09e59] (14+16/46) Accurately ripped
 04     [1b55e38a|4fa75e5e] (14+16/46) Accurately ripped
 05     [47f6e250|4ceb46bc] (14+16/46) Accurately ripped
 06     [a5ec098e|5ca859d6] (14+16/46) Accurately ripped
 07     [9ce8c72b|ae279455] (14+16/46) Accurately ripped
 08     [24e3bbdd|7dd18978] (14+16/46) Accurately ripped
 09     [717ef4ad|5bc7b9d1] (13+16/45) Accurately ripped
 10     [887a2edc|02bba51e] (12+16/44) Accurately ripped
Offsetted by 201:
 01     [b963936b] (03/46) Accurately ripped
 02     [7a7a9bcb] (03/46) Accurately ripped
 03     [df8296b2] (03/46) Accurately ripped
 04     [df51f523] (03/46) Accurately ripped
 05     [bc36c3b7] (03/46) Accurately ripped
 06     [91fdccd4] (03/46) Accurately ripped
 07     [654219ee] (03/46) Accurately ripped
 08     [fc944610] (03/46) Accurately ripped
 09     [822ccddc] (03/45) Accurately ripped
 10     [3ab38056] (03/44) Accurately ripped
Offsetted by -365:
 01     [be7ea020] (00/46) No match (V2 was not tested)
 02     [c60e3952] (00/46) No match (V2 was not tested)
 03     [b45cbee9] (00/46) No match (V2 was not tested)
 04     [00ab64db] (00/46) No match (V2 was not tested)
 05     [5ccfaa50] (00/46) No match (V2 was not tested)
 06     [5d0cd686] (00/46) No match (V2 was not tested)
 07     [d5b5d28a] (00/46) No match (V2 was not tested)
 08     [5d10b334] (00/46) No match (V2 was not tested)
 09     [93f99d8a] (00/45) No match (V2 was not tested)
 10     [cbf34856] (00/44) No match (V2 was not tested)
Offsetted by 294:
 01     [ad6aa49b] (00/46) No match (V2 was not tested)
 02     [71fb5d0d] (00/46) No match (V2 was not tested)
 03     [81ba77d3] (00/46) No match (V2 was not tested)
 04     [15132e64] (00/46) No match (V2 was not tested)
 05     [5c8a3d6c] (00/46) No match (V2 was not tested)
 06     [85f5ef92] (00/46) No match (V2 was not tested)
 07     [69c60c98] (00/46) No match (V2 was not tested)
 08     [f32fb185] (00/46) No match (V2 was not tested)
 09     [1485dd82] (00/45) No match (V2 was not tested)
 10     [8456032a] (00/44) No match (V2 was not tested)

Track Peak [ CRC32  ] [W/O NULL] [  LOG   ]
 --  100.0 [637E8019] [ADA49AD2]   CRC32   
 01  100.0 [0F4AD452] [8BBD0B6C]           
 02   88.8 [E11F1772] [FA02235E]           
 03  100.0 [356297A0] [E58F9A7F]           
 04   89.9 [E96D0248] [A48EEE7D]           
 05  100.0 [BA264121] [25F3165F]           
 06   93.6 [0A064FEC] [D51F444D]           
 07   99.9 [9903BD70] [343B16C9]           
 08  100.0 [B5A4B6BF] [D6C5A83F]           
 09  100.0 [E8B915CF] [F9038200]           
 10   98.5 [B1F05B56] [6EC4B6C1]           



Create a new paste based on this one


Comments: