[ create a new paste ] login | about

Link: http://codepad.org/GK9McDoO    [ raw code | fork ]

Plain Text, pasted on Dec 27:
Exact Audio Copy V1.6 from 23. October 2020

EAC extraction logfile from 23. December 2020, 8:44

Paul McCartney / McCartney III

Used drive  : PIONEER BD-RW   BDR-S09   Adapter: 1  ID: 1

Read mode               : Secure
Utilize accurate stream : Yes
Defeat audio cache      : Yes
Make use of C2 pointers : No

Read offset correction                      : 667
Overread into Lead-In and Lead-Out          : No
Fill up missing offset samples with silence : Yes
Delete leading and trailing silent blocks   : No
Null samples used in CRC calculations       : Yes
Used interface                              : Native Win32 interface for Win NT & 2000

Used output format              : User Defined Encoder
Selected bitrate                : 1024 kBit/s
Quality                         : High
Add ID3 tag                     : Yes
Command line compressor         : C:\Program Files (x86)\Exact Audio Copy\Flac\flac.exe
Additional command line options : -8 -v -t


TOC of the extracted CD

     Track |   Start  |  Length  | Start sector | End sector 
    ---------------------------------------------------------
        1  |  0:00.00 |  5:16.44 |         0    |    23743   
        2  |  5:16.44 |  3:54.56 |     23744    |    41349   
        3  |  9:11.25 |  3:00.58 |     41350    |    54907   
        4  | 12:12.08 |  2:52.30 |     54908    |    67837   
        5  | 15:04.38 |  2:22.50 |     67838    |    78537   
        6  | 17:27.13 |  8:25.65 |     78538    |   116477   
        7  | 25:53.03 |  3:23.27 |    116478    |   131729   
        8  | 29:16.30 |  3:06.35 |    131730    |   145714   
        9  | 32:22.65 |  3:20.38 |    145715    |   160752   
       10  | 35:43.28 |  5:52.61 |    160753    |   187213   
       11  | 41:36.14 |  3:12.20 |    187214    |   201633   


Range status and errors

Selected range

     Filename C:\Paul McCartney - McCartney III - 2020\Paul McCartney - McCartney III.wav

     Peak level 99.8 %
     Extraction speed 4.4 X
     Range quality 100.0 %
     Test CRC 77233715
     Copy CRC 77233715
     Copy OK

No errors occurred

 
AccurateRip summary
 
Track  1  not present in database
Track  2  not present in database
Track  3  not present in database
Track  4  not present in database
Track  5  not present in database
Track  6  not present in database
Track  7  not present in database
Track  8  not present in database
Track  9  not present in database
Track 10  not present in database
Track 11  not present in database
 
None of the tracks are present in the AccurateRip database

End of status report

---- CUETools DB Plugin V2.1.6

[CTDB TOCID: C8CXxi6LtvE9O3NtqDmTIZE1sgE-] found
Submit result: already submitted
Track | CTDB Status
  1   | (116/116) Accurately ripped
  2   | (115/116) Accurately ripped
  3   | (116/116) Accurately ripped
  4   | (116/116) Accurately ripped
  5   | (116/116) Accurately ripped
  6   | (116/116) Accurately ripped
  7   | (116/116) Accurately ripped
  8   | (116/116) Accurately ripped
  9   | (116/116) Accurately ripped
 10   | (116/116) Accurately ripped
 11   | (115/116) Accurately ripped


==== Log checksum 9EF4D1725F9C56C60CA0740F4F29F5A4E7EF54F3DD4B5D6537E4E4A27AC1E929 ====

------------------------------------------------------------

Exact Audio Copy V1.6 from 23. October 2020

EAC extraction logfile from 23. December 2020, 8:44

Paul McCartney / McCartney III

Used drive  : PIONEER BD-RW   BDR-S09   Adapter: 1  ID: 1

Read mode               : Secure
Utilize accurate stream : Yes
Defeat audio cache      : Yes
Make use of C2 pointers : No

Read offset correction                      : 667
Overread into Lead-In and Lead-Out          : No
Fill up missing offset samples with silence : Yes
Delete leading and trailing silent blocks   : No
Null samples used in CRC calculations       : Yes
Used interface                              : Native Win32 interface for Win NT & 2000

Used output format              : User Defined Encoder
Selected bitrate                : 1024 kBit/s
Quality                         : High
Add ID3 tag                     : Yes
Command line compressor         : C:\Program Files (x86)\Exact Audio Copy\Flac\flac.exe
Additional command line options : -8 -v -t


TOC of the extracted CD

     Track |   Start  |  Length  | Start sector | End sector 
    ---------------------------------------------------------
        1  |  0:00.00 |  5:16.44 |         0    |    23743   
        2  |  5:16.44 |  3:54.56 |     23744    |    41349   
        3  |  9:11.25 |  3:00.58 |     41350    |    54907   
        4  | 12:12.08 |  2:52.30 |     54908    |    67837   
        5  | 15:04.38 |  2:22.50 |     67838    |    78537   
        6  | 17:27.13 |  8:25.65 |     78538    |   116477   
        7  | 25:53.03 |  3:23.27 |    116478    |   131729   
        8  | 29:16.30 |  3:06.35 |    131730    |   145714   
        9  | 32:22.65 |  3:20.38 |    145715    |   160752   
       10  | 35:43.28 |  5:52.61 |    160753    |   187213   
       11  | 41:36.14 |  3:12.20 |    187214    |   201633   


Range status and errors

Selected range

     Filename C:\Paul McCartney - McCartney III - 2020\Paul McCartney - McCartney III.wav

     Peak level 99.8 %
     Extraction speed 4.4 X
     Range quality 100.0 %
     Test CRC 77233715
     Copy CRC 77233715
     Copy OK

No errors occurred

 
AccurateRip summary
 
Track  1  not present in database
Track  2  not present in database
Track  3  not present in database
Track  4  not present in database
Track  5  not present in database
Track  6  not present in database
Track  7  not present in database
Track  8  not present in database
Track  9  not present in database
Track 10  not present in database
Track 11  not present in database
 
None of the tracks are present in the AccurateRip database

End of status report

---- CUETools DB Plugin V2.1.6

[CTDB TOCID: C8CXxi6LtvE9O3NtqDmTIZE1sgE-] found
Submit result: already submitted
Track | CTDB Status
  1   | (116/116) Accurately ripped
  2   | (115/116) Accurately ripped
  3   | (116/116) Accurately ripped
  4   | (116/116) Accurately ripped
  5   | (116/116) Accurately ripped
  6   | (116/116) Accurately ripped
  7   | (116/116) Accurately ripped
  8   | (116/116) Accurately ripped
  9   | (116/116) Accurately ripped
 10   | (116/116) Accurately ripped
 11   | (115/116) Accurately ripped


==== Log checksum 9EF4D1725F9C56C60CA0740F4F29F5A4E7EF54F3DD4B5D6537E4E4A27AC1E929 ====



Create a new paste based on this one


Comments: