[ create a new paste ] login | about

Link: http://codepad.org/GRQoMWxB    [ raw code | fork ]

Plain Text, pasted on Feb 3:
foobar2000 1.6 / Dynamic Range Meter 1.1.1
log date: 2021-02-03 04:42:41

--------------------------------------------------------------------------------
Analyzed: Art Tatum / Piano Starts Here - Live At The Shrine
--------------------------------------------------------------------------------

DR         Peak         RMS     Duration Track
--------------------------------------------------------------------------------
DR13      -5.41 dB   -21.42 dB      3:16 01-Tea For Two (SACD Stereo)
DR13      -5.74 dB   -22.63 dB      2:42 02-St. Louis Blues (SACD Stereo)
DR13      -3.38 dB   -21.30 dB      2:22 03-Tiger Rag (SACD Stereo)
DR12      -6.41 dB   -21.45 dB      3:20 04-Sophisticated Lady (SACD Stereo)
DR14      -6.21 dB   -22.74 dB      3:48 05-Humoresque (SACD Stereo)
DR14      -2.69 dB   -20.20 dB      2:33 06-Tatum Pole Boogie (SACD Stereo)
DR14      -5.02 dB   -22.12 dB      3:35 07-Someone To Watch Over Me (SACD Stereo)
DR13      -2.82 dB   -19.90 dB      2:30 08-How High The Moon (SACD Stereo)
DR15      -2.38 dB   -22.24 dB      3:28 09-Yesterdays (SACD Stereo)
DR15      -4.89 dB   -22.67 dB      3:17 10-Willow Weep For Me (SACD Stereo)
DR13      -6.11 dB   -24.06 dB      1:06 11-The Kerry Dance (SACD Stereo)
DR15      -3.67 dB   -22.15 dB      3:59 12-Gershwin Medley (SACD Stereo)
DR14      -4.82 dB   -22.72 dB      2:46 13-I Know That You Know (SACD Stereo)
DR14      -1.90 dB   -19.56 dB      3:14 14-Tea For Two (SACD Binaural Stereo)
DR15      -1.90 dB   -20.40 dB      2:42 15-St. Louis Blues (SACD Binaural Stereo)
DR15      -0.01 dB   -19.42 dB      2:21 16-Tiger Rag (SACD Binaural Stereo)
DR14      -3.47 dB   -20.37 dB      3:20 17-Sophisticated Lady (SACD Binaural Stereo)
DR15      -5.72 dB   -24.54 dB      3:48 18-Humoresque (SACD Binaural Stereo)
DR16      -1.01 dB   -21.82 dB      2:33 19-Tatum Pole Boogie (SACD Binaural Stereo)
DR17      -3.27 dB   -24.10 dB      3:35 20-Someone To Watch Over Me (SACD Binaural Stereo)
DR15      -3.61 dB   -21.83 dB      2:30 21-How High The Moon (SACD Binaural Stereo)
DR17      -3.34 dB   -24.52 dB      3:28 22-Yesterdays (SACD Binaural Stereo)
DR15      -5.15 dB   -24.88 dB      3:17 23-Willow Weep For Me (SACD Binaural Stereo)
DR15      -5.77 dB   -26.61 dB      1:06 24-The Kerry Dance (SACD Binaural Stereo)
DR16      -3.45 dB   -23.75 dB      3:59 25-Gershwin Medley (SACD Binaural Stereo)
DR14      -3.33 dB   -23.11 dB      2:41 26-I Know That You Know (SACD Binaural Stereo)
--------------------------------------------------------------------------------

Number of tracks:  26
Official DR value: DR14

Samplerate:        88200 Hz
Channels:          2
Bits per sample:   24
Bitrate:           2235 kbps
Codec:             FLAC
================================================================================




Create a new paste based on this one


Comments: