[ create a new paste ] login | about

Link: http://codepad.org/GRlMf3K1    [ raw code | fork ]

Plain Text, pasted on Feb 20:
foobar2000 1.3.10 / Dynamic Range Meter 1.1.1
log date: 2017-02-19 11:01:54

--------------------------------------------------------------------------------
Analyzed: The Alan Parsons Project / Tales Of Mystery And Imagination Edgar Allen Poe (5.1 Surround 24-96)
--------------------------------------------------------------------------------

DR         Peak         RMS     Duration Track
--------------------------------------------------------------------------------
DR14      -9.25 dB   -32.62 dB      4:14 01-A Dream Within A Dream (Instrumental)
DR12       0.00 dB   -22.61 dB      3:58 02-The Raven
DR13      -1.48 dB   -22.79 dB      4:39 03-The Tell-Tale Heart
DR12      -4.68 dB   -23.36 dB      4:33 04-The Cask Of Amontillado
DR12      -0.37 dB   -19.36 dB      4:22 05-(The System Of) Doctor Tarr And Professor Fether
DR16      -2.81 dB   -28.09 dB      7:01 06-Fall Of The House Of Usher: I Prelude
DR12      -2.66 dB   -23.81 dB      2:40 07-Fall Of The House Of Usher: II Arrival
DR10     -18.80 dB   -37.38 dB      1:00 08-Fall Of The House Of Usher: III Intermezzo
DR14      -4.78 dB   -25.57 dB      4:37 09-Fall Of The House Of Usher: IV Pavane
DR10      -4.22 dB   -21.62 dB      0:52 10-Fall Of The House Of Usher: V Fall
DR12      -5.05 dB   -23.37 dB      4:40 11-To One In Paradise
--------------------------------------------------------------------------------

Number of tracks:  11
Official DR value: DR13

Samplerate:        96000 Hz
Channels:          6
Bits per sample:   24
Bitrate:           7229 kbps
Codec:             FLAC
================================================================================




Create a new paste based on this one


Comments: