[ create a new paste ] login | about

Link: http://codepad.org/GUnhCZrX    [ raw code | fork ]

Plain Text, pasted on Dec 13:
foobar2000 1.4.1 / Dynamic Range Meter 1.1.1
log date: 2018-12-13 15:24:00

--------------------------------------------------------------------------------
Analyzed: Neil Young / Songs For Judy
--------------------------------------------------------------------------------

DR         Peak         RMS     Duration Track
--------------------------------------------------------------------------------
DR15      -0.35 dB   -20.39 dB      3:26 01-Songs For Judy Intro
DR11      -0.32 dB   -14.72 dB      3:15 02-Too Far Gone
DR9       -0.31 dB   -11.73 dB      2:29 03-No One Seems To Know
DR11      -0.33 dB   -13.42 dB      2:54 04-Heart Of Gold
DR10      -0.32 dB   -13.16 dB      2:46 05-White Line
DR10      -0.38 dB   -13.66 dB      2:20 06-Love Is A Rose
DR11      -0.35 dB   -15.31 dB      4:16 07-After The Gold Rush
DR11      -0.31 dB   -14.87 dB      3:04 08-Human Highway
DR11      -0.33 dB   -15.46 dB      3:35 09-Tell Me Why
DR10      -0.31 dB   -12.91 dB      3:06 10-Mr. Soul
DR9       -0.39 dB   -11.33 dB      2:30 11-Mellow My Mind
DR9       -0.41 dB   -11.34 dB      3:27 12-Give Me Strength
DR8       -0.31 dB   -11.74 dB      4:54 13-A Man Needs A Maid
DR11      -0.54 dB   -13.84 dB      2:22 14-Roll Another Number
DR8       -0.31 dB   -10.37 dB      3:17 15-Journey Through The Past
DR11      -0.46 dB   -13.84 dB      2:43 16-Harvest
DR10      -0.48 dB   -12.96 dB      3:31 17-Campaigner
DR11      -0.34 dB   -14.29 dB      5:18 18-Old Laughing Lady
DR10      -0.60 dB   -13.58 dB      3:51 19-The Losing End
DR11      -0.57 dB   -15.85 dB      3:56 20-Here We Are In The Years
DR10      -0.47 dB   -13.65 dB      2:27 21-The Needle And The Damage Done
DR10      -0.41 dB   -14.19 dB      3:49 22-Pocahontas
DR11      -0.34 dB   -15.46 dB      6:08 23-Sugar Mountain
--------------------------------------------------------------------------------

Number of tracks:  23
Official DR value: DR10

Samplerate:        44100 Hz
Channels:          2
Bits per sample:   16
Bitrate:           784 kbps
Codec:             FLAC
================================================================================




Create a new paste based on this one


Comments: