[ create a new paste ] login | about

Link: http://codepad.org/GZIf8OVE    [ raw code | fork ]

Plain Text, pasted on May 3:
[CUETools log; Date: 5/3/2017 7:53:50 AM; Version: 2.1.5]
[CTDB TOCID: FfNAwv0JxPDZD2eenTxt_8NO7O8-] found.
Track | CTDB Status
  1   | (36/82) Accurately ripped
  2   | (36/82) Accurately ripped
  3   | (36/82) Accurately ripped
  4   | (36/82) Accurately ripped
  5   | (36/82) Accurately ripped
  6   | (36/82) Accurately ripped
  7   | (36/82) Accurately ripped
  8   | (36/82) Accurately ripped
  9   | (36/82) Accurately ripped
 10   | (36/82) Accurately ripped
 11   | (36/82) Accurately ripped
 12   | (36/82) Accurately ripped
 13   | (36/82) Accurately ripped
[AccurateRip ID: 0018b7cc-00f87cee-be0cb00d] found.
Track   [  CRC   |   V2   ] Status
 01     [3d4958cc|e295bc8e] (0+3/6) Accurately ripped
 02     [499a6d59|65dfd99d] (0+3/6) Accurately ripped
 03     [a0511f56|35ff1b9d] (0+3/6) Accurately ripped
 04     [17a85176|67f30d1e] (0+3/6) Accurately ripped
 05     [5146d758|732cd569] (0+3/6) Accurately ripped
 06     [63fa05ee|ad4f9887] (0+3/6) Accurately ripped
 07     [14e951a6|cfee7897] (0+3/6) Accurately ripped
 08     [a1f6d2e6|cbff5fd6] (0+3/6) Accurately ripped
 09     [3858b596|4cab5e7b] (0+3/6) Accurately ripped
 10     [7eb683c8|95e3082e] (0+3/6) Accurately ripped
 11     [a427fb98|7a4c8f83] (0+3/6) Accurately ripped
 12     [0d2ba01a|773b988c] (0+3/6) Accurately ripped
 13     [fdaffcb8|cf56981f] (0+3/6) Accurately ripped

Track Peak [ CRC32  ] [W/O NULL] [  LOG   ]
 --   98.9 [AA063D2F] [5127573C]   CRC32   
 01   96.9 [2EF1EA39] [C3B6E60C]           
 02   98.9 [1AF3A2A7] [47D3359A]           
 03   97.9 [A6897651] [353B748B]           
 04   96.9 [0B78CD81] [6404D3E1]           
 05   98.8 [B6AA8E6C] [3C2B834C]           
 06   96.6 [679B9796] [9175D9D0]           
 07   98.5 [0544E280] [2861D15B]           
 08   97.2 [88CD6709] [7B2B44CC]           
 09   97.5 [5E45C7AA] [0DE9E5FD]           
 10   96.9 [33BD013F] [E70E794F]           
 11   96.9 [45607B69] [447973D1]           
 12   92.5 [A795CFA2] [D547217E]           
 13   98.8 [6C8977D3] [E325FAA7]           



Create a new paste based on this one


Comments: