[ create a new paste ] login | about

Link: http://codepad.org/GahUTozb    [ raw code | fork ]

Plain Text, pasted on Oct 9:
Disc 1
::::::

foobar2000 1.6 / Dynamic Range Meter 1.1.1
log date: 2020-10-09 05:56:56

--------------------------------------------------------------------------------
Analyzed: The Doors / Morrison Hotel (50th Anniversary Deluxe Edition)
--------------------------------------------------------------------------------

DR         Peak         RMS     Duration Track
--------------------------------------------------------------------------------
DR10      -1.05 dB   -13.76 dB      4:02 01-Roadhouse Blues (2020 Remaster)
DR11      -0.67 dB   -13.86 dB      4:00 02-Waiting for the Sun (2020 Remaster)
DR11      -0.47 dB   -14.22 dB      2:55 03-You Make Me Real (2020 Remaster)
DR12      -0.98 dB   -15.00 dB      2:52 04-Peace Frog (2020 Remaster)
DR12      -2.32 dB   -16.63 dB      2:14 05-Blue Sunday (2020 Remaster)
DR10      -1.43 dB   -13.26 dB      3:09 06-Ship of Fools (2020 Remaster)
DR10      -1.55 dB   -13.86 dB      4:12 07-Land Ho! (2020 Remaster)
DR13      -0.82 dB   -17.08 dB      4:17 08-The Spy (2020 Remaster)
DR11      -0.99 dB   -14.23 dB      2:49 09-Queen of the Highway (2020 Remaster)
DR11      -2.83 dB   -17.73 dB      2:35 10-Indian Summer (2020 Remaster)
DR13      -0.31 dB   -16.22 dB      4:35 11-Maggie M'Gill (2020 Remaster)
--------------------------------------------------------------------------------

Number of tracks:  11
Official DR value: DR11

Samplerate:        96000 Hz
Channels:          2
Bits per sample:   24
Bitrate:           2982 kbps
Codec:             FLAC
================================================================================


Disc 2
::::::

foobar2000 1.6 / Dynamic Range Meter 1.1.1
log date: 2020-10-09 05:57:29

--------------------------------------------------------------------------------
Analyzed: The Doors / Morrison Hotel (50th Anniversary Deluxe Edition)
--------------------------------------------------------------------------------

DR         Peak         RMS     Duration Track
--------------------------------------------------------------------------------
DR11      -9.39 dB   -29.62 dB      1:12 01-Queen of the Highway (Take 1) [She Was a Princess] (2020 Remaster)
DR13      -0.22 dB   -20.88 dB      6:24 02-Queen of the Highway (Various Takes) (2020 Remaster)
DR14      -0.48 dB   -18.59 dB      3:17 03-Queen of the Highway (Take 44) [He Was a Monster] (2020 Remaster)
DR17      -0.35 dB   -22.46 dB      5:05 04-Queen of the Highway (Take 12) [No One Could Save Her] (2020 Remaster)
DR15       0.00 dB   -18.41 dB      4:02 05-Queen of the Highway (Take 14) [Save the Blind Tiger] [With Robby Krieger Guitar Overdub] (2020 Remaster)
DR14      -0.67 dB   -18.62 dB      4:31 06-Queen of the Highway (Take 1) [American Boy - American Girl] (2020 Remaster)
DR11      -3.70 dB   -18.64 dB      1:00 07-Queen of the Highway (Takes 5, 6 & 9) [Dancing Through the Midnight Whirlpool] (2020 Remaster)
DR13      -0.58 dB   -16.47 dB      4:03 08-Queen of the Highway (Take 14) [Start It All Over] (2020 Remaster)
DR12      -4.66 dB   -22.06 dB      1:21 09-I Will Never Be Untrue (2020 Remaster)
DR10       0.00 dB   -25.87 dB      1:02 10-Queen of the Highway (Take Unknown) (2020 Remaster)
DR15      -0.24 dB   -17.65 dB      5:14 11-Roadhouse Blues (Take 14) [Keep Your Eyes On The Road] (2020 Remaster)
DR14      -0.71 dB   -18.28 dB      3:40 12-Money (That's What I Want) (2020 Remaster)
DR13      -0.37 dB   -17.90 dB      6:06 13-Rock Me Baby (2020 Remaster)
DR13       0.00 dB   -17.26 dB      5:10 14-Roadhouse Blues (Takes 6 & 7) [Your Hands Upon The Wheel] (2020 Remaster)
DR12       0.00 dB   -16.30 dB      5:48 15-Roadhouse Blues (Take 8) [We're Goin' To The Roadhouse] (2020 Remaster)
DR14      -0.52 dB   -17.15 dB      5:00 16-Roadhouse Blues (Takes 1 & 2) [We're Gonna Have A Real Good Time] (2020 Remaster)
DR13      -0.47 dB   -16.82 dB      4:06 17-Roadhouse Blues (Takes 5, 6 & 14) [Let It Roll, Baby, Roll] (2020 Remaster)
DR14      -0.04 dB   -17.66 dB      5:43 18-Peace Frog/Blue Sunday (Take 4) (2020 Remaster)
DR13      -1.03 dB   -17.08 dB      3:38 19-Peace Frog (Take 12) (2020 Remaster)
--------------------------------------------------------------------------------

Number of tracks:  19
Official DR value: DR13

Samplerate:        96000 Hz
Channels:          2
Bits per sample:   24
Bitrate:           2982 kbps
Codec:             FLAC
================================================================================




Create a new paste based on this one


Comments: