[ create a new paste ] login | about

Link: http://codepad.org/GdkD9tU7    [ raw code | fork ]

Plain Text, pasted on Jul 29:
Exact Audio Copy V1.3 from 2. September 2016

EAC extraction logfile from 21. July 2019, 17:49

Tangerine Dream / Rubycon

Used drive  : PLEXTOR BD-R  PX-B950SA   Adapter: 1  ID: 1

Read mode               : Secure
Utilize accurate stream : Yes
Defeat audio cache      : Yes
Make use of C2 pointers : No

Read offset correction                      : 6
Overread into Lead-In and Lead-Out          : No
Fill up missing offset samples with silence : Yes
Delete leading and trailing silent blocks   : No
Null samples used in CRC calculations       : Yes
Used interface                              : Native Win32 interface for Win NT & 2000

Used output format : Internal WAV Routines
Sample format      : 44.100 Hz; 16 Bit; Stereo


TOC of the extracted CD

     Track |   Start  |  Length  | Start sector | End sector 
    ---------------------------------------------------------
        1  |  0:00.00 | 17:17.33 |         0    |    77807   
        2  | 17:17.33 | 17:41.29 |     77808    |   157411   
        3  | 34:58.62 | 15:04.55 |    157412    |   225266   


Range status and errors

Selected range

     Filename C:\Tangerine Dream\2019 In Search Of Hades (18-Disc Box Set Universal Music)\CD09 1975 Rubycon\Tangerine Dream - Rubycon.wav

     Peak level 98.2 %
     Extraction speed 6.8 X
     Range quality 100.0 %
     Test CRC 8B57769F
     Copy CRC 8B57769F
     Copy OK

No errors occurred

 
AccurateRip summary
 
Track  1  not present in database
Track  2  not present in database
Track  3  not present in database
 
None of the tracks are present in the AccurateRip database

End of status report

---- CUETools DB Plugin V2.1.6

[CTDB TOCID: mje6PcmbImfJfFa_jWmyjCauOuQ-] found
Submit result: mje6PcmbImfJfFa_jWmyjCauOuQ- has been confirmed
Track | CTDB Status
  1   | (83/83) Accurately ripped
  2   | (83/83) Accurately ripped
  3   | (82/83) Accurately ripped


==== Log checksum 65C233C77527AB08E49D8DE58BD95A912D331360CC5DF314229E24E92CBCDEB9 ====



Create a new paste based on this one


Comments: