[ create a new paste ] login | about

Link: http://codepad.org/GgHkxvOj    [ raw code | fork ]

Plain Text, pasted on Mar 27:
foobar2000 1.3.17 / Dynamic Range Meter 1.1.1
log date: 2018-03-26 21:07:03

--------------------------------------------------------------------------------
Analyzed: Ray Charles / Live In Concert
--------------------------------------------------------------------------------

DR         Peak         RMS     Duration Track
--------------------------------------------------------------------------------
DR12      -9.09 dB   -27.06 dB      0:38 01-Opening
DR13      -6.05 dB   -22.90 dB      3:40 02-Band: Swing A Little Taste
DR13      -7.49 dB   -23.63 dB      6:08 03-I Gotta Woman
DR14      -7.23 dB   -24.67 dB      2:27 04-Margie
DR14      -9.47 dB   -27.82 dB      3:15 05-You Don't Know Me
DR13      -5.59 dB   -23.17 dB      2:58 06-Hide Nor Hair
DR13      -7.34 dB   -23.81 dB      2:41 07-Baby, Don't You Cry
DR15      -7.88 dB   -26.96 dB      6:05 08-Makin' Whoopee
DR14      -8.17 dB   -24.95 dB      3:31 09-Hallelujah I Love Her So
DR12      -7.87 dB   -23.73 dB      3:15 10-Don't Set Me Free
DR12      -9.14 dB   -24.23 dB      4:40 11-What'd I Say
DR14     -10.89 dB   -29.78 dB      1:50 12-Finale
--------------------------------------------------------------------------------

Number of tracks:  12
Official DR value: DR13

Samplerate:        2822400 Hz / PCM Samplerate: 176400 Hz
Channels:          2
Bits per sample:   1
Bitrate:           5645 kbps
Codec:             DSD64
================================================================================




Create a new paste based on this one


Comments: