[ create a new paste ] login | about

Link: http://codepad.org/GjmymrhR    [ raw code | fork ]

Plain Text, pasted on Sep 24:
foobar2000 1.4.6 / Dynamic Range Meter 1.1.1
log date: 2019-09-24 15:09:58

--------------------------------------------------------------------------------
Analyzed: Golden Earring / Naked III
--------------------------------------------------------------------------------

DR         Peak         RMS     Duration Track
--------------------------------------------------------------------------------
DR15      -4.35 dB   -24.57 dB      4:33 01-Angel
DR15      -5.41 dB   -24.84 dB      4:31 02-Turn The World Around
DR14      -5.30 dB   -22.51 dB      3:36 03-Vince Taylor
DR15      -5.53 dB   -24.55 dB      3:28 04-I've Just Lost Somebody
DR16      -4.47 dB   -24.69 dB      4:07 05-Sleepwalking
DR16      -5.49 dB   -25.53 dB      3:26 06-Need Her
DR15      -5.48 dB   -24.79 dB      3:20 07-The Thief
DR16      -4.86 dB   -26.03 dB      6:55 08-I Need Love
DR15      -5.28 dB   -24.15 dB      5:11 09-Kill Me (Ce Soir)
DR15      -5.27 dB   -24.67 dB      5:48 10-Paradise In Distress
DR16      -5.05 dB   -24.21 dB      4:17 11-Albino Moon
DR15      -4.97 dB   -24.14 dB      3:58 12-Lost and Found
DR16      -5.17 dB   -25.23 dB      3:34 13-Hold Me Now
DR16      -5.15 dB   -25.86 dB      3:57 14-Colour Blind
DR14      -5.25 dB   -22.33 dB      3:23 15-Will and Mercy
DR16      -5.23 dB   -23.34 dB      4:25 16-No For An Answer
DR15      -5.53 dB   -25.05 dB      3:51 17-Last Frontier Hotel
DR15      -5.30 dB   -23.72 dB      5:02 18-Holy Holy Live
--------------------------------------------------------------------------------

Number of tracks:  18
Official DR value: DR15

Samplerate:        2822400 Hz / PCM Samplerate: 176400 Hz
Channels:          6
Bits per sample:   1
Bitrate:           16934 kbps
Codec:             DST64
================================================================================

--------------------------------------------------------------------------------
Analyzed: Golden Earring / Naked III
--------------------------------------------------------------------------------

DR         Peak         RMS     Duration Track
--------------------------------------------------------------------------------
DR12      -4.74 dB   -18.55 dB      4:33 01-Angel
DR11      -5.23 dB   -18.52 dB      4:31 02-Turn The World Around
DR10      -5.34 dB   -16.59 dB      3:36 03-Vince Taylor
DR12      -5.51 dB   -19.07 dB      3:28 04-I've Just Lost Somebody
DR12      -4.36 dB   -17.96 dB      4:07 05-Sleepwalking
DR11      -5.36 dB   -17.88 dB      3:26 06-Need Her
DR11      -5.37 dB   -19.13 dB      3:20 07-The Thief
DR11      -5.07 dB   -19.26 dB      6:55 08-I Need Love
DR11      -5.35 dB   -18.06 dB      5:11 09-Kill Me (Ce Soir)
DR10      -4.96 dB   -17.43 dB      5:48 10-Paradise In Distress
DR11      -3.63 dB   -17.36 dB      4:17 11-Albino Moon
DR11      -5.17 dB   -17.63 dB      3:58 12-Lost and Found
DR10      -5.40 dB   -18.05 dB      3:34 13-Hold Me Now
DR11      -4.90 dB   -18.51 dB      3:57 14-Colour Blind
DR10      -5.42 dB   -15.93 dB      3:23 15-Will and Mercy
DR10      -4.91 dB   -16.43 dB      4:25 16-No For An Answer
DR10      -3.00 dB   -18.05 dB      3:51 17-Last Frontier Hotel
DR10      -5.35 dB   -17.07 dB      5:02 18-Holy Holy Live
--------------------------------------------------------------------------------

Number of tracks:  18
Official DR value: DR11

Samplerate:        2822400 Hz / PCM Samplerate: 176400 Hz
Channels:          2
Bits per sample:   1
Bitrate:           5645 kbps
Codec:             DST64
================================================================================




Create a new paste based on this one


Comments: