[ create a new paste ] login | about

Link: http://codepad.org/GkssskS4    [ raw code | fork ]

Plain Text, pasted on Jun 4:
foobar2000 1.4.4 / Dynamic Range Meter 1.1.1
log date: 2019-06-04 11:16:37

--------------------------------------------------------------------------------
Analyzed: THE O'JAYS / SHIP AHOY
--------------------------------------------------------------------------------

DR         Peak         RMS     Duration Track
--------------------------------------------------------------------------------
DR9       -1.14 dB   -12.71 dB      4:09 01-Put Your Hands Together
DR10      -0.95 dB   -14.00 dB      9:37 02-Ship Ahoy
DR10      -1.00 dB   -12.71 dB      3:53 03-This Air I Breathe
DR9       -1.10 dB   -13.26 dB      5:33 04-You Got Your Hooks In Me
DR10      -0.83 dB   -12.60 dB      7:20 05-For The Love Of Money
DR10      -0.96 dB   -13.21 dB      4:41 06-Now That We Found Love
DR9       -0.01 dB   -12.77 dB      8:56 07-Don't Call Me Brother
DR9       -0.99 dB   -12.32 dB      3:58 08-People Keep Tellin' Me
--------------------------------------------------------------------------------

Number of tracks:  8
Official DR value: DR10

Samplerate:        88200 Hz
Channels:          2
Bits per sample:   24
Bitrate:           2762 kbps
Codec:             FLAC
================================================================================




Create a new paste based on this one


Comments: