[ create a new paste ] login | about

Link: http://codepad.org/Glf39Abn    [ raw code | fork ]

Plain Text, pasted on Jul 29:
Exact Audio Copy V1.3 from 2. September 2016

EAC extraction logfile from 20. July 2019, 18:45

Tangerine Dream / Cyclone

Used drive  : PLEXTOR BD-R  PX-B950SA   Adapter: 1  ID: 1

Read mode               : Secure
Utilize accurate stream : Yes
Defeat audio cache      : Yes
Make use of C2 pointers : No

Read offset correction                      : 6
Overread into Lead-In and Lead-Out          : No
Fill up missing offset samples with silence : Yes
Delete leading and trailing silent blocks   : No
Null samples used in CRC calculations       : Yes
Used interface                              : Native Win32 interface for Win NT & 2000

Used output format : Internal WAV Routines
Sample format      : 44.100 Hz; 16 Bit; Stereo


TOC of the extracted CD

     Track |   Start  |  Length  | Start sector | End sector 
    ---------------------------------------------------------
        1  |  0:00.00 | 13:10.59 |         0    |    59308   
        2  | 13:10.59 |  5:05.31 |     59309    |    82214   
        3  | 18:16.15 | 20:35.66 |     82215    |   174905   
        4  | 38:52.06 |  6:12.56 |    174906    |   202861   
        5  | 45:04.62 |  7:19.73 |    202862    |   235859   


Range status and errors

Selected range

     Filename C:\Tangerine Dream\2019 In Search Of Hades (18-Disc Box Set Universal Music)\CD15 1978 Cyclone\Tangerine Dream - Cyclone.wav

     Peak level 98.6 %
     Extraction speed 7.2 X
     Range quality 100.0 %
     Test CRC 54BEBF81
     Copy CRC 54BEBF81
     Copy OK

No errors occurred

 
AccurateRip summary
 
Track  1  not present in database
Track  2  not present in database
Track  3  not present in database
Track  4  not present in database
Track  5  not present in database
 
None of the tracks are present in the AccurateRip database

End of status report

---- CUETools DB Plugin V2.1.6

[CTDB TOCID: 30FefKalAQ.5ZzM5.sgPE7h4eoA-] found
Submit result: 30FefKalAQ.5ZzM5.sgPE7h4eoA- has been confirmed
Track | CTDB Status
  1   | (72/72) Accurately ripped
  2   | (72/72) Accurately ripped
  3   | (72/72) Accurately ripped
  4   | (72/72) Accurately ripped
  5   | (72/72) Accurately ripped


==== Log checksum AA5203CD40AE7B3F61385D30C8E07A35CC779A330A3B09617C4AB119A6101ED1 ====



Create a new paste based on this one


Comments: