[ create a new paste ] login | about

Link: http://codepad.org/GrnmiTiM    [ raw code | fork ]

Plain Text, pasted on Aug 2:
foobar2000 1.4.4 / Dynamic Range Meter 1.1.1
log date: 2019-08-01 18:24:05

--------------------------------------------------------------------------------
Analyzed: Pink Floyd / The Endless River
--------------------------------------------------------------------------------

DR         Peak         RMS     Duration Track
--------------------------------------------------------------------------------
DR11      -6.55 dB   -21.79 dB      2:28 01-TBS9
DR9       -5.21 dB   -16.75 dB      4:11 02-BS14
DR13      -0.11 dB   -15.14 dB      5:31 03-Nervana
--------------------------------------------------------------------------------

Number of tracks:  3
Official DR value: DR11

Samplerate:        96000 Hz
Channels:          2
Bits per sample:   24
Bitrate:           2753 kbps
Codec:             FLAC
================================================================================




Create a new paste based on this one


Comments: