[ create a new paste ] login | about

Link: http://codepad.org/Gt3moM4e    [ raw code | fork ]

Plain Text, pasted on Dec 17:
foobar2000 1.4.1 / Dynamic Range Meter 1.1.1
log date: 2018-12-17 08:53:39

--------------------------------------------------------------------------------
Analyzed: Styx / The Mission (Blu-ray Edition)
--------------------------------------------------------------------------------

DR         Peak         RMS     Duration Track
--------------------------------------------------------------------------------
DR6       -0.03 dB    -8.65 dB      1:25 01-Overture
DR7       -0.29 dB    -9.06 dB      2:09 02-Gone Gone Gone
DR8       -0.40 dB    -9.86 dB      3:40 03-Hundred Million Miles From Home
DR8       -0.28 dB   -11.83 dB      2:30 04-Trouble At The Big Show
DR9       -0.38 dB   -13.18 dB      5:03 05-Locomotive
DR8       -0.40 dB   -10.82 dB      4:16 06-Radio Silence
DR8       -0.47 dB   -11.26 dB      4:12 07-The Greater Good
DR9       -0.33 dB   -12.50 dB      2:33 08-Time May Bend
DR8       -0.51 dB   -12.43 dB      1:20 09-Ten Thousand Ways
DR8       -0.27 dB   -10.88 dB      6:04 10-Red Storm
DR15      -5.65 dB   -25.85 dB      0:18 11-All Systems Stable
DR9       -0.52 dB   -12.24 dB      2:03 12-Khedive
DR9       -0.39 dB   -11.05 dB      3:51 13-The Outpost
DR7       -0.40 dB   -10.81 dB      2:48 14-Mission To Mars
--------------------------------------------------------------------------------

Number of tracks:  14
Official DR value: DR8

Samplerate:        96000 Hz
Channels:          2
Bits per sample:   24
Bitrate:           3125 kbps
Codec:             FLAC
================================================================================




Create a new paste based on this one


Comments: