[ create a new paste ] login | about

Link: http://codepad.org/GuJYRrkb    [ raw code | fork ]

Plain Text, pasted on Nov 4:
foobar2000 1.3.17 / Dynamic Range Meter 1.1.1
log date: 2018-11-03 16:08:07

--------------------------------------------------------------------------------
Analyzed: Eagles / Legacy
--------------------------------------------------------------------------------

DR         Peak         RMS     Duration Track
--------------------------------------------------------------------------------
DR11      -1.00 dB   -13.82 dB      3:32 01-Take It Easy (Remastered)
DR11      -1.00 dB   -13.73 dB      4:11 02-Witchy Woman (Remastered)
DR11      -0.57 dB   -12.91 dB      3:16 03-Chug All Night (Remastered)
DR11      -1.29 dB   -15.08 dB      3:35 04-Most Of Us Are Sad (Remastered)
DR11      -0.14 dB   -13.35 dB      4:06 05-Nightingale (Remastered)
DR12      -1.63 dB   -16.50 dB      4:10 06-Train Leaves Here This Morning (Remastered)
DR12      -0.97 dB   -16.41 dB      4:01 07-Take The Devil (Remastered)
DR11      -1.21 dB   -14.83 dB      3:00 08-Earlybird (Remastered)
DR11      -1.42 dB   -14.49 dB      4:18 09-Peaceful Easy Feeling (Remastered)
DR11      -0.65 dB   -13.53 dB      2:53 10-Tryin' (Remastered)
--------------------------------------------------------------------------------

Number of tracks:  10
Official DR value: DR11

Samplerate:        96000 Hz
Channels:          2
Bits per sample:   24
Bitrate:           3064 kbps
Codec:             FLAC
================================================================================




Create a new paste based on this one


Comments: