[ create a new paste ] login | about

Link: http://codepad.org/GyOoCXAG    [ raw code | fork ]

Plain Text, pasted on Aug 1:
foobar2000 1.5 / Dynamic Range Meter 1.1.1
log date: 2020-08-01 20:04:40

--------------------------------------------------------------------------------
Analyzed: Alanis Morissette / Such Pretty Forks In The Road
--------------------------------------------------------------------------------

DR         Peak         RMS     Duration Track
--------------------------------------------------------------------------------
DR5       -0.77 dB    -8.54 dB      4:17 01-Smiling
DR6       -0.48 dB    -9.25 dB      3:58 02-Ablaze
DR5       -0.70 dB    -7.77 dB      3:37 03-Reasons I Drink
DR7       -1.80 dB   -11.25 dB      4:47 04-Diagnosis
DR4       -0.96 dB    -7.50 dB      3:33 05-Missing The Miracle
DR5       -0.84 dB    -8.10 dB      3:57 06-Losing The Plot
DR5       -0.91 dB    -8.41 dB      3:25 07-Reckoning
DR5       -0.86 dB    -7.96 dB      4:13 08-Sandbox Love
DR7       -0.98 dB    -9.62 dB      4:10 09-Her
DR5       -0.85 dB    -8.21 dB      5:56 10-Nemesis
DR6       -0.90 dB    -9.36 dB      4:08 11-Pedestal
--------------------------------------------------------------------------------

Number of tracks:  11
Official DR value: DR6

Samplerate:        44100 Hz
Channels:          2
Bits per sample:   16
Bitrate:           831 kbps
Codec:             FLAC
================================================================================




Create a new paste based on this one


Comments: