[ create a new paste ] login | about

Link: http://codepad.org/Gz6MHvB8    [ raw code | fork ]

Plain Text, pasted on Aug 5:
foobar2000 1.3.17 / Dynamic Range Meter 1.1.1
log date: 2018-08-05 10:48:59

--------------------------------------------------------------------------------
Analyzed: Nnenna Freelon / Shaking Free
--------------------------------------------------------------------------------

DR         Peak         RMS     Duration Track
--------------------------------------------------------------------------------
DR14      -6.07 dB   -27.68 dB      6:02 01-Out Of This World
DR14      -5.21 dB   -27.68 dB      6:03 02-Black Is The Color Of My True Love's Hair
DR12      -8.95 dB   -29.54 dB      4:19 03-I Live To Love You
DR14      -5.45 dB   -25.69 dB      5:18 04-Shaking Free
DR12     -11.30 dB   -30.69 dB      4:54 05-Stories We Hold
DR15      -6.19 dB   -28.64 dB      4:31 06-Birk's Works
DR12     -13.04 dB   -31.65 dB      4:38 07-My Shining Hour
DR14      -6.68 dB   -24.74 dB      4:04 08-Visions
DR14      -6.61 dB   -28.24 dB      5:04 09-I Thought About You
DR13      -9.61 dB   -31.35 dB      6:37 10-What Am I Here For?
DR14      -6.15 dB   -26.40 dB      4:16 11-Nature Boy
DR11     -16.30 dB   -32.70 dB      2:21 12-Blue Daughter
--------------------------------------------------------------------------------

Number of tracks:  12
Official DR value: DR13

Samplerate:        2822400 Hz / PCM Samplerate: 176400 Hz
Channels:          6
Bits per sample:   1
Bitrate:           16934 kbps
Codec:             DST64
================================================================================

--------------------------------------------------------------------------------
Analyzed: Nnenna Freelon / Shaking Free
--------------------------------------------------------------------------------

DR         Peak         RMS     Duration Track
--------------------------------------------------------------------------------
DR14      -6.21 dB   -23.96 dB      6:02 01-Out Of This World
DR13      -5.71 dB   -23.21 dB      6:03 02-Black Is The Color Of My True Love's Hair
DR13      -7.82 dB   -25.96 dB      4:19 03-I Live To Love You
DR14      -6.00 dB   -22.71 dB      5:18 04-Shaking Free
DR13      -7.82 dB   -24.19 dB      4:54 05-Stories We Hold
DR13      -7.74 dB   -24.90 dB      4:31 06-Birk's Works
DR13     -10.63 dB   -28.70 dB      4:38 07-My Shining Hour
DR11      -5.61 dB   -20.15 dB      4:04 08-Visions
DR14      -5.79 dB   -23.79 dB      5:04 09-I Thought About You
DR14      -6.31 dB   -26.08 dB      6:37 10-What Am I Here For?
DR13      -5.92 dB   -22.03 dB      4:16 11-Nature Boy
DR11     -11.03 dB   -27.96 dB      2:21 12-Blue Daughter
--------------------------------------------------------------------------------

Number of tracks:  12
Official DR value: DR13

Samplerate:        2822400 Hz / PCM Samplerate: 176400 Hz
Channels:          2
Bits per sample:   1
Bitrate:           5645 kbps
Codec:             DST64
================================================================================




Create a new paste based on this one


Comments: