[ create a new paste ] login | about

Link: http://codepad.org/H00BjzXL    [ raw code | fork ]

Plain Text, pasted on May 8:
foobar2000 1.4.1 / Dynamic Range Meter 1.1.1
log date: 2019-05-07 23:12:20

--------------------------------------------------------------------------------
Analyzed: MILES DAVIS / SOMEDAY MY PRINCE WILL COME
--------------------------------------------------------------------------------

DR         Peak         RMS     Duration Track
--------------------------------------------------------------------------------
DR12      -1.43 dB   -17.46 dB      9:08 01-SOMEDAY MY PRINCE WILL COME
DR12      -3.51 dB   -19.74 dB      5:17 02-OLD FOLKS
DR13      -0.01 dB   -16.74 dB      8:33 03-PFRANCING
DR12      -5.29 dB   -21.46 dB      4:51 04-DRAD-DOG
DR13      -2.38 dB   -18.40 dB      9:36 05-TEO
DR13      -3.00 dB   -21.68 dB      4:55 06-I THOUGHT ABOUT YOU
DR13      -1.41 dB   -17.78 dB      7:07 07-BLUES NO.2
DR13      -3.47 dB   -21.36 dB      5:36 08-SOMEDAY MY PRINCE WILL COME (alternate take)
--------------------------------------------------------------------------------

Number of tracks:  8
Official DR value: DR13

Samplerate:        88200 Hz
Channels:          2
Bits per sample:   24
Bitrate:           2537 kbps
Codec:             FLAC
================================================================================




Create a new paste based on this one


Comments: