[ create a new paste ] login | about

Link: http://codepad.org/H1yxTxp2    [ raw code | fork ]

Plain Text, pasted on Jan 12:
Exact Audio Copy V1.0 beta 4 from 7. December 2014

EAC extraction logfile from 19. March 2015, 7:39

Roger Waters / The Collection. CD7. In The Flesh CD2 (2011, 88697763332-5, 82876842682)

Used drive  : ATAPI   iHAS124   B   Adapter: 1  ID: 0

Read mode               : Secure
Utilize accurate stream : Yes
Defeat audio cache      : Yes
Make use of C2 pointers : No

Read offset correction                      : 6
Overread into Lead-In and Lead-Out          : No
Fill up missing offset samples with silence : Yes
Delete leading and trailing silent blocks   : No
Null samples used in CRC calculations       : Yes
Used interface                              : Installed external ASPI interface

Used output format              : User Defined Encoder
Selected bitrate                : 128 kBit/s
Quality                         : High
Add ID3 tag                     : Yes
Command line compressor         : C:\Program Files (x86)\Exact Audio Copy\Flac\flac.exe
Additional command line options : -V -8 -T "Date=%year%" -T "Genre=%genre%" %source%

TOC of the extracted CD

     Track |   Start  |  Length  | Start sector | End sector
    ---------------------------------------------------------
        1  |  0:00.00 |  3:23.00 |         0    |    15224
        2  |  3:23.00 |  6:24.15 |     15225    |    44039
        3  |  9:47.15 |  6:11.22 |     44040    |    71886
        4  | 15:58.37 |  5:20.38 |     71887    |    95924
        5  | 21:19.00 |  7:26.30 |     95925    |   129404
        6  | 28:45.30 |  5:04.02 |    129405    |   152206
        7  | 33:49.32 |  8:12.03 |    152207    |   189109
        8  | 42:01.35 |  9:25.65 |    189110    |   231549
        9  | 51:27.25 |  4:06.50 |    231550    |   250049
       10  | 55:34.00 |  2:19.67 |    250050    |   260541
       11  | 57:53.67 |  8:08.58 |    260542    |   297199
       12  | 66:02.50 |  9:05.00 |    297200    |   338074

Range status and errors

Selected range

     Filename G:\CD\Roger Waters - CD7. In The Flesh CD2.wav

     Peak level 100.0 %
     Extraction speed 6.3 X
     Range quality 100.0 %
     Test CRC F6FBCE92
     Copy CRC F6FBCE92
     Copy OK

No errors occurred

AccurateRip summary

Track  1  accurately ripped (confidence 100)  [5AB041AE]  (AR v2)
Track  2  accurately ripped (confidence 99)  [A8A76F5E]  (AR v2)
Track  3  accurately ripped (confidence 100)  [1D25B43A]  (AR v2)
Track  4  accurately ripped (confidence 100)  [336FFEF2]  (AR v2)
Track  5  accurately ripped (confidence 100)  [C89B1970]  (AR v2)
Track  6  accurately ripped (confidence 100)  [37637BC7]  (AR v2)
Track  7  accurately ripped (confidence 100)  [63935E8F]  (AR v2)
Track  8  accurately ripped (confidence 99)  [AA54A889]  (AR v2)
Track  9  accurately ripped (confidence 100)  [726E4A1C]  (AR v2)
Track 10  accurately ripped (confidence 100)  [FD47E567]  (AR v2)
Track 11  accurately ripped (confidence 100)  [FD3A86BF]  (AR v2)
Track 12  accurately ripped (confidence 97)  [801B55E6]  (AR v2)

All tracks accurately ripped

End of status report

---- CUETools DB Plugin V2.1.4

[CTDB TOCID: XUn.qiYJgj_WufAUAYFGQ2S0is8-] found
Submit result: XUn.qiYJgj_WufAUAYFGQ2S0is8- has been confirmed
Track | CTDB Status
  1   | (201/201) Accurately ripped
  2   | (201/201) Accurately ripped
  3   | (201/201) Accurately ripped
  4   | (201/201) Accurately ripped
  5   | (201/201) Accurately ripped
  6   | (201/201) Accurately ripped
  7   | (201/201) Accurately ripped
  8   | (201/201) Accurately ripped
  9   | (201/201) Accurately ripped
 10   | (201/201) Accurately ripped
 11   | (199/201) Accurately ripped
 12   | (199/201) Accurately ripped

==== Log checksum 9C9620FA539BA81626852B3A35D5AC31D619C448F761A47CF66E68B80D5E0001 ====


Create a new paste based on this one


Comments: