[ create a new paste ] login | about

Link: http://codepad.org/H4M1vUlx    [ raw code | fork ]

Plain Text, pasted on Mar 10:
Exact Audio Copy V1.2 from 12. August 2016

EAC extraction logfile from 11. December 2017, 15:47

Various Artists / Milk Of The Tree CD3

Used drive  : HL-DT-STDVD+-RW GU90N   Adapter: 1  ID: 1

Read mode               : Secure
Utilize accurate stream : Yes
Defeat audio cache      : Yes
Make use of C2 pointers : No

Read offset correction                      : 102
Overread into Lead-In and Lead-Out          : No
Fill up missing offset samples with silence : Yes
Delete leading and trailing silent blocks   : No
Null samples used in CRC calculations       : Yes
Used interface                              : Native Win32 interface for Win NT & 2000
Gap handling                                : Appended to previous track

Used output format              : User Defined Encoder
Selected bitrate                : 1024 kBit/s
Quality                         : High
Add ID3 tag                     : No
Command line compressor         : C:\Program Files (x86)\Exact Audio Copy\Flac\flac.exe
Additional command line options : -8 -V -T "ARTIST=%artist%" -T "TITLE=%title%" -T "ALBUM=%albumtitle%" -T "DATE=%year%" -T "TRACKNUMBER=%tracknr%" -T "GENRE=%genre%" -T "PERFORMER=%albuminterpret%" -T "COMPOSER=%composer%" %haslyrics%--tag-from-file=LYRICS="%lyricsfile%"%haslyrics% -T "ALBUMARTIST=%albumartist%" -T "DISCNUMBER=%cdnumber%" -T "TOTALDISCS=%totalcds%" -T "TOTALTRACKS=%numtracks%" -T "COMMENT=%comment%" %source% -o %dest%


TOC of the extracted CD

     Track |   Start  |  Length  | Start sector | End sector 
    ---------------------------------------------------------
        1  |  0:00.00 |  5:38.62 |         0    |    25411   
        2  |  5:38.62 |  3:15.02 |     25412    |    40038   
        3  |  8:53.64 |  3:11.62 |     40039    |    54425   
        4  | 12:05.51 |  3:00.54 |     54426    |    67979   
        5  | 15:06.30 |  2:45.04 |     67980    |    80358   
        6  | 17:51.34 |  2:29.29 |     80359    |    91562   
        7  | 20:20.63 |  3:02.09 |     91563    |   105221   
        8  | 23:22.72 |  4:04.35 |    105222    |   123556   
        9  | 27:27.32 |  3:10.74 |    123557    |   137880   
       10  | 30:38.31 |  2:00.46 |    137881    |   146926   
       11  | 32:39.02 |  2:42.10 |    146927    |   159086   
       12  | 35:21.12 |  5:03.01 |    159087    |   181812   
       13  | 40:24.13 |  3:16.42 |    181813    |   196554   
       14  | 43:40.55 |  4:36.51 |    196555    |   217305   
       15  | 48:17.31 |  2:26.05 |    217306    |   228260   
       16  | 50:43.36 |  3:00.42 |    228261    |   241802   
       17  | 53:44.03 |  5:10.46 |    241803    |   265098   
       18  | 58:54.49 |  4:46.23 |    265099    |   286571   
       19  | 63:40.72 |  7:22.22 |    286572    |   319743   
       20  | 71:03.19 |  5:41.21 |    319744    |   345339   


Track  1

     Filename C:\Users\ian\Desktop\VA - Milk Of The Tree An Anthology Of Female Vocal Folk And Singer Songwriters (1966-73) [FLAC] {3CD}\Milk Of The Tree CD3\01 - Chimera - Come Into The Garden.wav

     Pre-gap length  0:00:02.00

     Peak level 96.6 %
     Extraction speed 1.4 X
     Track quality 100.0 %
     Test CRC E787D658
     Copy CRC E787D658
     Copy OK

Track  2

     Filename C:\Users\ian\Desktop\VA - Milk Of The Tree An Anthology Of Female Vocal Folk And Singer Songwriters (1966-73) [FLAC] {3CD}\Milk Of The Tree CD3\02 - Diane Hildebrand - Early Morning Blues And Greens.wav

     Pre-gap length  0:00:02.00

     Peak level 96.6 %
     Extraction speed 1.4 X
     Track quality 100.0 %
     Test CRC 45E4E7B2
     Copy CRC 45E4E7B2
     Copy OK

Track  3

     Filename C:\Users\ian\Desktop\VA - Milk Of The Tree An Anthology Of Female Vocal Folk And Singer Songwriters (1966-73) [FLAC] {3CD}\Milk Of The Tree CD3\03 - Susan Christie - Rainy Day.wav

     Pre-gap length  0:00:02.00

     Peak level 96.6 %
     Extraction speed 1.5 X
     Track quality 100.0 %
     Test CRC 95BD1163
     Copy CRC 95BD1163
     Copy OK

Track  4

     Filename C:\Users\ian\Desktop\VA - Milk Of The Tree An Anthology Of Female Vocal Folk And Singer Songwriters (1966-73) [FLAC] {3CD}\Milk Of The Tree CD3\04 - Bridget St. John - Autumn Lullaby.wav

     Pre-gap length  0:00:02.00

     Peak level 96.6 %
     Extraction speed 1.5 X
     Track quality 100.0 %
     Test CRC DA248300
     Copy CRC DA248300
     Copy OK

Track  5

     Filename C:\Users\ian\Desktop\VA - Milk Of The Tree An Anthology Of Female Vocal Folk And Singer Songwriters (1966-73) [FLAC] {3CD}\Milk Of The Tree CD3\05 - Principal Edwards Magic Theatre - Ballad (Of The Big Girl Now And A Mere Boy).wav

     Pre-gap length  0:00:02.00

     Peak level 96.2 %
     Extraction speed 1.6 X
     Track quality 100.0 %
     Test CRC 1C22A164
     Copy CRC 1C22A164
     Copy OK

Track  6

     Filename C:\Users\ian\Desktop\VA - Milk Of The Tree An Anthology Of Female Vocal Folk And Singer Songwriters (1966-73) [FLAC] {3CD}\Milk Of The Tree CD3\06 - Ruthann Friedman - Windy.wav

     Pre-gap length  0:00:02.00

     Peak level 96.6 %
     Extraction speed 1.4 X
     Track quality 99.9 %
     Test CRC 9A5CEB32
     Copy CRC 9A5CEB32
     Copy OK

Track  7

     Filename C:\Users\ian\Desktop\VA - Milk Of The Tree An Anthology Of Female Vocal Folk And Singer Songwriters (1966-73) [FLAC] {3CD}\Milk Of The Tree CD3\07 - Design - The Lonely.wav

     Pre-gap length  0:00:02.00

     Peak level 96.6 %
     Extraction speed 1.7 X
     Track quality 100.0 %
     Test CRC 2D2C07B8
     Copy CRC 2D2C07B8
     Copy OK

Track  8

     Filename C:\Users\ian\Desktop\VA - Milk Of The Tree An Anthology Of Female Vocal Folk And Singer Songwriters (1966-73) [FLAC] {3CD}\Milk Of The Tree CD3\08 - Shelagh McDonald - Mirage.wav

     Pre-gap length  0:00:02.00

     Peak level 85.3 %
     Extraction speed 1.9 X
     Track quality 100.0 %
     Test CRC 223EA1AC
     Copy CRC 223EA1AC
     Copy OK

Track  9

     Filename C:\Users\ian\Desktop\VA - Milk Of The Tree An Anthology Of Female Vocal Folk And Singer Songwriters (1966-73) [FLAC] {3CD}\Milk Of The Tree CD3\09 - Mary Hopkin - Aderyn Llwyd (Sparrow).wav

     Pre-gap length  0:00:02.00

     Peak level 96.6 %
     Extraction speed 1.9 X
     Track quality 100.0 %
     Test CRC 408BCA3C
     Copy CRC 408BCA3C
     Copy OK

Track 10

     Filename C:\Users\ian\Desktop\VA - Milk Of The Tree An Anthology Of Female Vocal Folk And Singer Songwriters (1966-73) [FLAC] {3CD}\Milk Of The Tree CD3\10 - Vashti Bunyan - Love Song.wav

     Pre-gap length  0:00:02.00

     Peak level 86.9 %
     Extraction speed 1.8 X
     Track quality 100.0 %
     Test CRC 60F00794
     Copy CRC 60F00794
     Copy OK

Track 11

     Filename C:\Users\ian\Desktop\VA - Milk Of The Tree An Anthology Of Female Vocal Folk And Singer Songwriters (1966-73) [FLAC] {3CD}\Milk Of The Tree CD3\11 - Bonnie Dobson - Winter's Going.wav

     Pre-gap length  0:00:02.00

     Peak level 96.6 %
     Extraction speed 1.9 X
     Track quality 100.0 %
     Test CRC 9408065F
     Copy CRC 9408065F
     Copy OK

Track 12

     Filename C:\Users\ian\Desktop\VA - Milk Of The Tree An Anthology Of Female Vocal Folk And Singer Songwriters (1966-73) [FLAC] {3CD}\Milk Of The Tree CD3\12 - Anne Briggs - Sandman's Song.wav

     Pre-gap length  0:00:02.00

     Peak level 96.6 %
     Extraction speed 2.2 X
     Track quality 100.0 %
     Test CRC DDBF3650
     Copy CRC DDBF3650
     Copy OK

Track 13

     Filename C:\Users\ian\Desktop\VA - Milk Of The Tree An Anthology Of Female Vocal Folk And Singer Songwriters (1966-73) [FLAC] {3CD}\Milk Of The Tree CD3\13 - The Bunch - When Will I Be Loved.wav

     Pre-gap length  0:00:02.00

     Peak level 96.6 %
     Extraction speed 1.9 X
     Track quality 99.9 %
     Test CRC 91F72E33
     Copy CRC 91F72E33
     Copy OK

Track 14

     Filename C:\Users\ian\Desktop\VA - Milk Of The Tree An Anthology Of Female Vocal Folk And Singer Songwriters (1966-73) [FLAC] {3CD}\Milk Of The Tree CD3\14 - Carolanne Pegg - The Lady And The Well.wav

     Pre-gap length  0:00:02.00

     Peak level 96.6 %
     Extraction speed 2.3 X
     Track quality 100.0 %
     Test CRC 595E578D
     Copy CRC 595E578D
     Copy OK

Track 15

     Filename C:\Users\ian\Desktop\VA - Milk Of The Tree An Anthology Of Female Vocal Folk And Singer Songwriters (1966-73) [FLAC] {3CD}\Milk Of The Tree CD3\15 - Margo Guryan - Think Of Rain.wav

     Pre-gap length  0:00:02.00

     Peak level 89.9 %
     Extraction speed 1.8 X
     Track quality 99.9 %
     Test CRC 16D87C01
     Copy CRC 16D87C01
     Copy OK

Track 16

     Filename C:\Users\ian\Desktop\VA - Milk Of The Tree An Anthology Of Female Vocal Folk And Singer Songwriters (1966-73) [FLAC] {3CD}\Milk Of The Tree CD3\16 - Ithaca - Beneath This Sky.wav

     Pre-gap length  0:00:02.00

     Peak level 96.6 %
     Extraction speed 2.0 X
     Track quality 99.9 %
     Test CRC 1C66A9E2
     Copy CRC 1C66A9E2
     Copy OK

Track 17

     Filename C:\Users\ian\Desktop\VA - Milk Of The Tree An Anthology Of Female Vocal Folk And Singer Songwriters (1966-73) [FLAC] {3CD}\Milk Of The Tree CD3\17 - Trees - Murdoch.wav

     Pre-gap length  0:00:02.00

     Peak level 96.6 %
     Extraction speed 2.6 X
     Track quality 100.0 %
     Test CRC 12FA36A5
     Copy CRC 12FA36A5
     Copy OK

Track 18

     Filename C:\Users\ian\Desktop\VA - Milk Of The Tree An Anthology Of Female Vocal Folk And Singer Songwriters (1966-73) [FLAC] {3CD}\Milk Of The Tree CD3\18 - The Sallyangie - Banquet On The Water.wav

     Pre-gap length  0:00:02.00

     Peak level 96.6 %
     Extraction speed 2.6 X
     Track quality 100.0 %
     Test CRC 33B85DE4
     Copy CRC 33B85DE4
     Copy OK

Track 19

     Filename C:\Users\ian\Desktop\VA - Milk Of The Tree An Anthology Of Female Vocal Folk And Singer Songwriters (1966-73) [FLAC] {3CD}\Milk Of The Tree CD3\19 - Emily Muff - Pass The Night.wav

     Pre-gap length  0:00:02.00

     Peak level 85.8 %
     Extraction speed 2.8 X
     Track quality 100.0 %
     Test CRC 526EA203
     Copy CRC 526EA203
     Copy OK

Track 20

     Filename C:\Users\ian\Desktop\VA - Milk Of The Tree An Anthology Of Female Vocal Folk And Singer Songwriters (1966-73) [FLAC] {3CD}\Milk Of The Tree CD3\20 - mi Farina - Morgan The Pirate.wav

     Pre-gap length  0:00:02.00

     Peak level 96.6 %
     Extraction speed 2.6 X
     Track quality 99.9 %
     Test CRC 9C56488C
     Copy CRC 9C56488C
     Copy OK

No errors occurred

End of status report

---- CUETools DB Plugin V2.1.6

[CTDB TOCID: TbNxlnhsjtHmZr1DsOWlV6sDM14-] found
Submit result: TbNxlnhsjtHmZr1DsOWlV6sDM14- has been confirmed
Track | CTDB Status
  1   | (5/5) Accurately ripped
  2   | (5/5) Accurately ripped
  3   | (5/5) Accurately ripped
  4   | (5/5) Accurately ripped
  5   | (5/5) Accurately ripped
  6   | (5/5) Accurately ripped
  7   | (5/5) Accurately ripped
  8   | (5/5) Accurately ripped
  9   | (5/5) Accurately ripped
 10   | (5/5) Accurately ripped
 11   | (5/5) Accurately ripped
 12   | (5/5) Accurately ripped
 13   | (5/5) Accurately ripped
 14   | (5/5) Accurately ripped
 15   | (5/5) Accurately ripped
 16   | (5/5) Accurately ripped
 17   | (5/5) Accurately ripped
 18   | (5/5) Accurately ripped
 19   | (5/5) Accurately ripped
 20   | (5/5) Accurately ripped


==== Log checksum CB3FB7EA694A10D76D7FA59EC7803E9A6C27FF2C097BD8F687BDAF922BF45CA3 ====



Create a new paste based on this one


Comments: