[ create a new paste ] login | about

Link: http://codepad.org/H8LfE8SL    [ raw code | fork ]

Plain Text, pasted on Apr 24:
Exact Audio Copy V1.3 from 2. September 2016

EAC extraction logfile from 20. April 2018, 13:30

Led Zeppelin / How The West Was Won CD3

Used drive  : PLEXTOR DVDR   PX-L890SA   Adapter: 1  ID: 0

Read mode               : Secure
Utilize accurate stream : Yes
Defeat audio cache      : Yes
Make use of C2 pointers : No

Read offset correction                      : 6
Overread into Lead-In and Lead-Out          : No
Fill up missing offset samples with silence : Yes
Delete leading and trailing silent blocks   : No
Null samples used in CRC calculations       : Yes
Used interface                              : Native Win32 interface for Win NT & 2000

Used output format              : User Defined Encoder
Selected bitrate                : 1024 kBit/s
Quality                         : High
Add ID3 tag                     : No
Command line compressor         : C:\Program Files (x86)\Exact Audio Copy\Flac\flac.exe
Additional command line options : -V -8 -T "Date=%year%" -T "Genre=%genre%" %source%


TOC of the extracted CD

     Track |   Start  |  Length  | Start sector | End sector 
    ---------------------------------------------------------
        1  |  0:00.00 | 21:01.24 |         0    |    94598   
        2  | 21:01.24 |  3:55.46 |     94599    |   112269   
        3  | 24:56.70 |  4:20.02 |    112270    |   131771   
        4  | 29:16.72 |  9:31.59 |    131772    |   174655   


Range status and errors

Selected range

     Filename H:\AUDIO\MUSIC\2003. Led Zeppelin - How West Was Won (Atlantic 0603497862788, EU)\CD3\Led Zeppelin - How The West Was Won CD3.wav

     Peak level 98.8 %
     Extraction speed 7.7 X
     Range quality 100.0 %
     Test CRC 9AC9827C
     Copy CRC 9AC9827C
     Copy OK

No errors occurred

 
AccurateRip summary
 
Track  1  accurately ripped (confidence 1)  [ED053089]  (AR v2)
Track  2  accurately ripped (confidence 1)  [812D4F2C]  (AR v2)
Track  3  accurately ripped (confidence 1)  [41F28AD6]  (AR v2)
Track  4  accurately ripped (confidence 1)  [B1509154]  (AR v2)
 
All tracks accurately ripped

End of status report

==== Log checksum 700565DC5D215EDED78341ACD8CB46CE66D12113FFDC80D083C0AB484F91B14F ====



Create a new paste based on this one


Comments: