[ create a new paste ] login | about

Link: http://codepad.org/H9qgRnKt    [ raw code | fork ]

Plain Text, pasted on Feb 14:
foobar2000 1.3.17 / Dynamic Range Meter 1.1.1
log date: 2018-02-14 14:23:20

--------------------------------------------------------------------------------
Analyzed: Loggins & Messina (Kenny Loggins with Jim Messina Sittin' In) / SITTIN' IN
--------------------------------------------------------------------------------

DR         Peak         RMS     Duration Track
--------------------------------------------------------------------------------
DR11      -6.81 dB   -21.13 dB      3:01 01-Nobody But You
DR12     -10.80 dB   -25.78 dB      4:17 02-Danny's Song
DR12      -7.93 dB   -23.17 dB      4:48 03-Vahevala
DR13      -7.56 dB   -25.02 dB     11:18 04-Trilogy: Lovin' Me / To Make A Woman Feel Wanted Peace Of Mind
DR13      -8.71 dB   -23.23 dB      3:19 05-Back To Georgia
DR12      -9.13 dB   -24.81 dB      4:26 06-House At Pooh Corner
DR12      -9.89 dB   -24.12 dB      2:50 07-Listen To A Country Song
DR13      -7.15 dB   -24.41 dB      8:18 08-Same Old Wine
DR12      -7.54 dB   -25.38 dB      3:10 09-Rock 'N Roll Mood
--------------------------------------------------------------------------------

Number of tracks:  9
Official DR value: DR12

Samplerate:        2822400 Hz / PCM Samplerate: 176400 Hz
Channels:          2
Bits per sample:   1
Bitrate:           5645 kbps
Codec:             DSD64
================================================================================




Create a new paste based on this one


Comments: