[ create a new paste ] login | about

Link: http://codepad.org/HDe29g17    [ raw code | fork ]

Plain Text, pasted on Dec 15:
Exact Audio Copy V1.0 beta 3 from 29. August 2011

EAC extraction logfile from 28. November 2011, 13:40

The Who / Quadrophenia CD3

Used drive  : HL-DT-STDVDRAM GSA-H60N   Adapter: 2  ID: 0

Read mode               : Secure
Utilize accurate stream : Yes
Defeat audio cache      : Yes
Make use of C2 pointers : No

Read offset correction                      : 667
Overread into Lead-In and Lead-Out          : No
Fill up missing offset samples with silence : Yes
Delete leading and trailing silent blocks   : No
Null samples used in CRC calculations       : Yes
Used interface                              : Native Win32 interface for Win NT & 2000

Used output format : Internal WAV Routines
Sample format      : 44.100 Hz; 16 Bit; Stereo


TOC of the extracted CD

     Track |   Start  |  Length  | Start sector | End sector 
    ---------------------------------------------------------
        1  |  0:00.00 |  4:26.51 |         0    |    20000   
        2  |  4:26.51 |  6:21.26 |     20001    |    48601   
        3  | 10:48.02 |  3:30.26 |     48602    |    64377   
        4  | 14:18.28 |  1:23.36 |     64378    |    70638   
        5  | 15:41.64 |  4:04.03 |     70639    |    88941   
        6  | 19:45.67 |  2:43.45 |     88942    |   101211   
        7  | 22:29.37 |  3:18.53 |    101212    |   116114   
        8  | 25:48.15 |  3:11.37 |    116115    |   130476   
        9  | 28:59.52 |  3:42.10 |    130477    |   147136   
       10  | 32:41.62 |  4:56.37 |    147137    |   169373   
       11  | 37:38.24 |  2:39.06 |    169374    |   181304   
       12  | 40:17.30 |  3:47.49 |    181305    |   198378   
       13  | 44:05.04 |  2:16.18 |    198379    |   208596   


Range status and errors

Selected range

     Filename C:\Documents and Settings\Admin\2011 Quadrophenia (4SHM-CD + DVD-A + 7'' Single Box Set Universal Music Japan 2011)\CD3\The Who - Quadrophenia CD3.wav

     Peak level 98.7 %
     Extraction speed 1.9 X
     Range quality 100.0 %
     Test CRC AAA55686
     Copy CRC AAA55686
     Copy OK

No errors occurred

 
AccurateRip summary
 
Track  1  accurately ripped (confidence 1)  [C5226512]  (AR v2)
Track  2  accurately ripped (confidence 1)  [41CAFD7F]  (AR v2)
Track  3  accurately ripped (confidence 1)  [5BA76DB1]  (AR v2)
Track  4  accurately ripped (confidence 1)  [963FF293]  (AR v2)
Track  5  accurately ripped (confidence 1)  [4F4332D4]  (AR v2)
Track  6  accurately ripped (confidence 1)  [5CE219A0]  (AR v2)
Track  7  accurately ripped (confidence 1)  [078D85AC]  (AR v2)
Track  8  accurately ripped (confidence 1)  [5FEE7A35]  (AR v2)
Track  9  accurately ripped (confidence 1)  [137FC086]  (AR v2)
Track 10  accurately ripped (confidence 1)  [CD916174]  (AR v2)
Track 11  accurately ripped (confidence 1)  [0AACE118]  (AR v2)
Track 12  accurately ripped (confidence 1)  [558AF43A]  (AR v2)
Track 13  accurately ripped (confidence 1)  [0D885F07]  (AR v2)
 
All tracks accurately ripped

End of status report

==== Log checksum 564A64FFDBCFA67C007C9C98D934848BC6C050528FA3B12FDA2DA066C0CE4218 ====



Create a new paste based on this one


Comments: