[ create a new paste ] login | about

Link: http://codepad.org/HE2CywTW    [ raw code | fork ]

Plain Text, pasted on Feb 15:
[CUETools log; Date: 2/15/2017 8:08:26 AM; Version: 2.1.5]
[CTDB TOCID: f3UEVm8smRYD.jjHDeq0CcnoySY-] found.
Track | CTDB Status
  1   | (20/21) Accurately ripped
  2   | (19/21) Accurately ripped
  3   | (20/21) Accurately ripped
  4   | (20/21) Accurately ripped
  5   | (19/21) Accurately ripped
  6   | (20/21) Accurately ripped
  7   | (20/21) Accurately ripped
  8   | (20/21) Accurately ripped
  9   | (20/21) Accurately ripped
 10   | (20/21) Accurately ripped
 11   | (20/21) Accurately ripped
 12   | (20/21) Accurately ripped
 13   | (20/21) Accurately ripped
 14   | (20/21) Accurately ripped
 15   | (20/21) Accurately ripped
 16   | (20/21) Accurately ripped
 17   | (19/21) Accurately ripped
 18   | (20/21) Accurately ripped
 19   | (20/21) Accurately ripped
 20   | (19/21) Accurately ripped
 21   | (20/21) Accurately ripped
[AccurateRip ID: 0033a671-0314998f-1b0fc915] found.
Track   [  CRC   |   V2   ] Status
 01     [8995f9d9|8e4a0fe5] (12+21/33) Accurately ripped
 02     [c904c91a|333dc86b] (12+20/32) Accurately ripped
 03     [91ef0278|9a0b63b5] (12+20/32) Accurately ripped
 04     [5d0a4746|b5220b0c] (12+20/32) Accurately ripped
 05     [8859e3db|3ba24f15] (12+20/32) Accurately ripped
 06     [d5c04fb0|4269e342] (12+21/33) Accurately ripped
 07     [2b647a25|0aa95a3a] (12+21/33) Accurately ripped
 08     [699827cf|cc13c90a] (12+21/33) Accurately ripped
 09     [1eda0c99|80edc1b6] (12+21/33) Accurately ripped
 10     [09c48f73|f9de9c40] (12+21/33) Accurately ripped
 11     [24c3d331|96bb6798] (12+21/33) Accurately ripped
 12     [d6363bba|8170e634] (12+21/33) Accurately ripped
 13     [1e133141|fd791844] (12+21/33) Accurately ripped
 14     [689e2a2e|6942f506] (12+21/33) Accurately ripped
 15     [0711f268|fc7220ec] (12+21/33) Accurately ripped
 16     [2eff2e6a|e7925dc1] (12+21/33) Accurately ripped
 17     [ba7498b3|77799250] (12+20/32) Accurately ripped
 18     [26b75857|bcedb370] (12+21/33) Accurately ripped
 19     [db955ac0|13f2f934] (12+22/34) Accurately ripped
 20     [c1f27f59|c10be89f] (12+22/34) Accurately ripped
 21     [399745a4|c5c6e3fc] (12+22/34) Accurately ripped

Track Peak [ CRC32  ] [W/O NULL] [  LOG   ]
 --   92.6 [57211EAF] [35A348C0]   CRC32   
 01   91.4 [C5F6C8E2] [4EB82A8B]           
 02   92.6 [F43DED69] [B4B45F4D]           
 03   92.6 [39E99FF7] [6BEE62EB]           
 04   92.6 [E5182C9A] [098F1DA6]           
 05   92.6 [252D27FA] [228B38FE]           
 06   92.6 [034A921F] [5A42E5A7]           
 07   92.6 [A5FFB112] [0A34873C]           
 08   92.6 [97CD1D9B] [ECB2C18F]           
 09   92.6 [EB07E85F] [47D7715E]           
 10   92.6 [09299EF8] [A0CDC69A]           
 11   92.6 [78D1CC81] [3283D2E0]           
 12   81.8 [AA0679DD] [4999DB8F]           
 13   89.8 [61DF5B93] [CA9561C7]           
 14   92.6 [9A2C59E4] [88287F9F]           
 15   92.6 [EB39626D] [C2C40F50]           
 16   88.3 [BF387936] [B1E4A96A]           
 17   92.6 [C0FDD073] [0A2B60E1]           
 18   92.6 [32B5E5FB] [8F4E3DB9]           
 19   92.6 [D85103C6] [86EC9A07]           
 20   65.6 [F8D59A9E] [E1C5DE03]           
 21   57.8 [09041953] [0FD9C95C]           



Create a new paste based on this one


Comments: