[ create a new paste ] login | about

Link: http://codepad.org/HFcvp0hJ    [ raw code | fork ]

Plain Text, pasted on Dec 15:
foobar2000 1.3.8 / Dynamic Range Meter 1.1.1
log date: 2015-10-13 16:20:35

--------------------------------------------------------------------------------
Analyzed: Albert Hammond / Best Folk (Hybrid SACD) (1)
          Art Garfunkel / Best Folk (Hybrid SACD) (2)
          Bob Dylan / Best Folk (Hybrid SACD) (3)
          Dan Fogelberg / Best Folk (Hybrid SACD) (4)
          Dolly Parton / Best Folk (Hybrid SACD) (5)
          Harry Belafonte / Best Folk (Hybrid SACD) (6)
          Heart / Best Folk (Hybrid SACD) (7)
          Jennifier Warnes / Best Folk (Hybrid SACD) (8)
          Jim Croce / Best Folk (Hybrid SACD) (9)
          Kansas / Best Folk (Hybrid SACD) (10)
          Loggins & Messina / Best Folk (Hybrid SACD) (11)
          Mary MacGregor / Best Folk (Hybrid SACD) (12)
          Simon & Garfunkel / Best Folk (Hybrid SACD) (13)
          The Brothers Four / Best Folk (Hybrid SACD) (14)
          The New Christy Minstrels / Best Folk (Hybrid SACD) (15)
          Willie Nelson / Best Folk (Hybrid SACD) (16)
--------------------------------------------------------------------------------

DR         Peak         RMS     Duration Track
--------------------------------------------------------------------------------
DR9       -0.54 dB   -11.50 dB      3:54 13-It Never Rains In Southern California
DR10      -0.61 dB   -12.44 dB      3:23 14-(What A) Wonderful World
DR13      -1.14 dB   -18.16 dB      2:48 04-Blowin' In The Wind
DR10      -1.77 dB   -13.77 dB      3:17 08-Longer
DR9       -1.25 dB   -13.81 dB      2:56 10-I Will Always Love You
DR9       -2.25 dB   -13.34 dB      3:05 03-Jamaica Farewell
DR11      -0.06 dB   -13.53 dB      5:02 15-Dog & Butterfly
DR9       -1.18 dB   -12.27 dB      3:31 12-I Know A Heartache When I See One
DR9       -1.49 dB   -13.06 dB      2:33 07-I'll Have To Say I Love You In A Song
DR11      -0.94 dB   -14.73 dB      3:24 16-Dust In The Wind
DR13      -1.07 dB   -16.99 dB      4:18 06-Danny's Song
DR9       -0.69 dB   -12.40 dB      3:43 09-Torn Between Two Lovers
DR9       -2.00 dB   -13.23 dB      3:08 05-The Sound Of Silence
DR11      -1.01 dB   -14.55 dB      2:57 01-Try To Remember
DR8       -2.88 dB   -12.81 dB      2:47 02-Today
DR10      -1.00 dB   -14.33 dB      3:33 11-Always On My Mind
--------------------------------------------------------------------------------

Number of tracks:  16
Official DR value: DR10

Samplerate:        88200 Hz
Channels:          2
Bits per sample:   24
Bitrate:           2575 kbps
Codec:             FLAC
================================================================================




Create a new paste based on this one


Comments: