[ create a new paste ] login | about

Link: http://codepad.org/HJzZS5dH    [ raw code | fork ]

Plain Text, pasted on Mar 6:
foobar2000 1.4.1 / Dynamic Range Meter 1.1.1
log date: 2019-03-04 15:26:49

--------------------------------------------------------------------------------
Analyzed: Rebecca Pidgeon / The Raven
--------------------------------------------------------------------------------

DR         Peak         RMS     Duration Track
--------------------------------------------------------------------------------
DR10      -5.97 dB   -27.55 dB      3:02 01-Kalerka
DR11      -5.97 dB   -26.47 dB      2:47 02-The Witch
DR10      -7.28 dB   -27.02 dB      2:51 03-The Raven
DR12      -5.97 dB   -28.54 dB      3:40 04-You Need Me There
DR10      -6.89 dB   -26.40 dB      6:34 05-Grandmother
DR10      -6.00 dB   -24.44 dB      3:01 06-You Got Me
DR9       -5.85 dB   -23.26 dB      3:16 07-Heart and Mind
DR10      -6.18 dB   -25.81 dB      3:32 08-Her Man Leaves Town
DR10      -5.70 dB   -23.94 dB      4:00 09-Seven Hours
DR10      -6.08 dB   -26.33 dB      3:29 10-Wendy's Style Shop
DR10      -6.29 dB   -24.48 dB      3:43 11-The Height of Land
DR10      -6.09 dB   -26.37 dB      3:35 12-Spanish Harlem
DR9       -5.86 dB   -23.14 dB      2:31 13-Remember Me
--------------------------------------------------------------------------------

Number of tracks:  13
Official DR value: DR10

Samplerate:        2822400 Hz / PCM Samplerate: 176400 Hz
Channels:          5
Bits per sample:   1
Bitrate:           14112 kbps
Codec:             DST64
================================================================================

--------------------------------------------------------------------------------
Analyzed: Rebecca Pidgeon / The Raven
--------------------------------------------------------------------------------

DR         Peak         RMS     Duration Track
--------------------------------------------------------------------------------
DR13      -5.97 dB   -24.17 dB      3:02 01-Kalerka
DR14      -5.97 dB   -23.15 dB      2:47 02-The Witch
DR12      -7.28 dB   -23.60 dB      2:51 03-The Raven
DR14      -5.97 dB   -25.15 dB      3:40 04-You Need Me There
DR12      -6.89 dB   -22.93 dB      6:34 05-Grandmother
DR12      -6.00 dB   -21.21 dB      3:01 06-You Got Me
DR11      -5.85 dB   -19.75 dB      3:16 07-Heart and Mind
DR13      -6.18 dB   -22.46 dB      3:32 08-Her Man Leaves Town
DR11      -5.70 dB   -20.50 dB      4:00 09-Seven Hours
DR12      -6.08 dB   -22.82 dB      3:29 10-Wendy's Style Shop
DR11      -6.29 dB   -21.13 dB      3:43 11-The Height of Land
DR13      -6.09 dB   -22.87 dB      3:35 12-Spanish Harlem
DR11      -5.86 dB   -19.77 dB      2:31 13-Remember Me
--------------------------------------------------------------------------------

Number of tracks:  13
Official DR value: DR12

Samplerate:        2822400 Hz / PCM Samplerate: 176400 Hz
Channels:          2
Bits per sample:   1
Bitrate:           5645 kbps
Codec:             DSD64
================================================================================




Create a new paste based on this one


Comments: