[ create a new paste ] login | about

Link: http://codepad.org/HKsqy6RU    [ raw code | fork ]

Plain Text, pasted on Apr 12:
1
2
3
4
5
6
7
8
9
10
11
12
13
14
15
16
17
18
19
20
21
22
23
24
25
26
27
28
29
30
31
32
33
34
35
36
37
38
39
40
41
42
43
44
45
46
47
48
49
50
51
52
53
54
55
56
57
58
59
60
61
62
63
64
65
66
67
68
69
70
71
72
73
74
75
76
77
78
79
80
81
82
83
84
85
86
87
88
89
90
91
92
93
94
95
96
97
98
99
100
101
102
103
104
105
106
107
108
109
110
111
112
113
114
115
116
117
118
119
120
121
122
123
124
125
126
127
128
129
130
131
132
133
134
135
136
137
138
139
140
141
142
143
144
145
146
147
148
149
150
151
152
153
154
155
156
157
158
159
160
161
162
163
164
165
166
167
168
169
170
171
172
173
174
175
176
177
178
179
180
181
182
183
184
185
186
187
188
189
190
191
192
193
194
195
196
197
198
199
200
201
202
203
204
205
206
207
208
209
210
211
212
213
214
215
216
217
218
219
220
221
222
223
224
225
226
227
228
229
230
231
232
233
234
235
236
237
238
239
240
241
242
243
244
245
246
247
248
249
250
251
252
253
254
255
256
257
258
259
260
261
262
263
264
265
266
267
268
269
270
271
272
273
274
275
276
277
278
279
280
281
282
283
284
285
286
287
288
289
290
291
292
293
294
295
296
297
298
299
300
301
302
303
304
305
306
307
308
309
310
311
312
313
314
315
316
317
318
319
320
321
322
323
324
325
326
327
328
329
330
331
332
333
334
335
336
337
338
339
340
341
342
343
344
345
346
347
348
349
350
351
352
353
354
355
356
357
358
359
360
361
362
363
364
365
366
367
368
369
370
371
372
373
374
375
376
377
378
379
380
381
382
383
384
385
386
387
388
389
390
391
392
393
394
395
396
397
398
399
400
401
402
403
404
405
406
407
408
409
410
411
412
413
414
415
416
417
418
419
Exact Audio Copy V1.0 beta 1 from 15. November 2010

EAC extraction logfile from 30. May 2011, 17:31

The Andrews Sisters / The Golden Age Of The Andrews Sisters - Disc 1

Used drive  : ASUS    DRW-1608P   Adapter: 0  ID: 0

Read mode               : Secure
Utilize accurate stream : Yes
Defeat audio cache      : Yes
Make use of C2 pointers : No

Read offset correction                      : 48
Overread into Lead-In and Lead-Out          : No
Fill up missing offset samples with silence : Yes
Delete leading and trailing silent blocks   : No
Null samples used in CRC calculations       : Yes
Used interface                              : Installed external ASPI interface
Gap handling                                : Appended to previous track

Used output format              : User Defined Encoder
Selected bitrate                : 256 kBit/s
Quality                         : High
Add ID3 tag                     : No
Command line compressor         : D:\Program Files\Exact Audio Copy\FLAC\FLAC.EXE
Additional command line options : -8 -V -T "ARTIST=%a" -T "TITLE=%t" -T "ALBUM=%g" -T "DATE=%y" -T "TRACKNUMBER=%n" -T "TOTALTRACKS=%x" -T "GENRE=%m" -T "ALBUMARTIST=%v" -T "ALBUM ARTIST=%v" -T "COMMENT=EAC Secure Mode, Test & Copy, AccurateRip, FLAC -8" %s


TOC of the extracted CD

     Track |   Start  |  Length  | Start sector | End sector 
    ---------------------------------------------------------
        1  |  0:00.00 |  3:10.12 |         0    |    14261   
        2  |  3:10.12 |  3:11.70 |     14262    |    28656   
        3  |  6:22.07 |  3:02.33 |     28657    |    42339   
        4  |  9:24.40 |  3:13.51 |     42340    |    56865   
        5  | 12:38.16 |  2:55.21 |     56866    |    70011   
        6  | 15:33.37 |  3:04.14 |     70012    |    83825   
        7  | 18:37.51 |  2:56.64 |     83826    |    97089   
        8  | 21:34.40 |  2:36.51 |     97090    |   108840   
        9  | 24:11.16 |  2:57.57 |    108841    |   122172   
       10  | 27:08.73 |  3:04.30 |    122173    |   136002   
       11  | 30:13.28 |  2:54.24 |    136003    |   149076   
       12  | 33:07.52 |  2:38.05 |    149077    |   160931   
       13  | 35:45.57 |  2:43.57 |    160932    |   173213   
       14  | 38:29.39 |  3:01.41 |    173214    |   186829   
       15  | 41:31.05 |  2:52.48 |    186830    |   199777   
       16  | 44:23.53 |  2:47.09 |    199778    |   212311   
       17  | 47:10.62 |  2:18.69 |    212312    |   222730   
       18  | 49:29.56 |  2:49.20 |    222731    |   235425   
       19  | 52:19.01 |  3:02.51 |    235426    |   249126   
       20  | 55:21.52 |  2:46.72 |    249127    |   261648   
       21  | 58:08.49 |  2:52.42 |    261649    |   274590   
       22  | 61:01.16 |  2:29.33 |    274591    |   285798   
       23  | 63:30.49 |  2:57.47 |    285799    |   299120   
       24  | 66:28.21 |  2:53.63 |    299121    |   312158   
       25  | 69:22.09 |  3:04.62 |    312159    |   326020   


Track  1

     Filename I:\The Andrews Sisters - The Golden Age Of The Andrews Sisters (2002) [FLAC] (4 CD set)\Disc 1of4\01 - Bei Mir Bist Du Schon.wav

     Pre-gap length  0:00:02.00

     Peak level 94.3 %
     Extraction speed 4.3 X
     Track quality 100.0 %
     Test CRC 84BA789C
     Copy CRC 84BA789C
     Track not present in AccurateRip database
     Copy OK

Track  2

     Filename I:\The Andrews Sisters - The Golden Age Of The Andrews Sisters (2002) [FLAC] (4 CD set)\Disc 1of4\02 - Tu-Li-Tulip Time.wav

     Pre-gap length  0:00:02.41

     Peak level 94.2 %
     Extraction speed 4.1 X
     Track quality 99.9 %
     Test CRC 264FCF76
     Copy CRC 264FCF76
     Track not present in AccurateRip database
     Copy OK

Track  3

     Filename I:\The Andrews Sisters - The Golden Age Of The Andrews Sisters (2002) [FLAC] (4 CD set)\Disc 1of4\03 - Lullaby To A Litle Jitterbug.wav

     Pre-gap length  0:00:02.40

     Peak level 94.2 %
     Extraction speed 5.0 X
     Track quality 100.0 %
     Test CRC 16122B71
     Copy CRC 16122B71
     Track not present in AccurateRip database
     Copy OK

Track  4

     Filename I:\The Andrews Sisters - The Golden Age Of The Andrews Sisters (2002) [FLAC] (4 CD set)\Disc 1of4\04 - Hold Tight, Hold Tight.wav

     Pre-gap length  0:00:02.41

     Peak level 94.2 %
     Extraction speed 5.3 X
     Track quality 100.0 %
     Test CRC 67363BDE
     Copy CRC 67363BDE
     Track not present in AccurateRip database
     Copy OK

Track  5

     Filename I:\The Andrews Sisters - The Golden Age Of The Andrews Sisters (2002) [FLAC] (4 CD set)\Disc 1of4\05 - The Beer Barrel Polka.wav

     Pre-gap length  0:00:02.41

     Peak level 94.1 %
     Extraction speed 5.5 X
     Track quality 100.0 %
     Test CRC DADA598A
     Copy CRC DADA598A
     Track not present in AccurateRip database
     Copy OK

Track  6

     Filename I:\The Andrews Sisters - The Golden Age Of The Andrews Sisters (2002) [FLAC] (4 CD set)\Disc 1of4\06 - Well, All Right.wav

     Pre-gap length  0:00:02.41

     Peak level 93.6 %
     Extraction speed 5.7 X
     Track quality 100.0 %
     Test CRC 8D76C178
     Copy CRC 8D76C178
     Track not present in AccurateRip database
     Copy OK

Track  7

     Filename I:\The Andrews Sisters - The Golden Age Of The Andrews Sisters (2002) [FLAC] (4 CD set)\Disc 1of4\07 - Yodelin' Jive (with Bing Crosby).wav

     Pre-gap length  0:00:02.40

     Peak level 94.3 %
     Extraction speed 6.0 X
     Track quality 100.0 %
     Test CRC 4E8A0914
     Copy CRC 4E8A0914
     Track not present in AccurateRip database
     Copy OK

Track  8

     Filename I:\The Andrews Sisters - The Golden Age Of The Andrews Sisters (2002) [FLAC] (4 CD set)\Disc 1of4\08 - Say Si Si.wav

     Pre-gap length  0:00:02.40

     Peak level 94.3 %
     Extraction speed 6.0 X
     Track quality 100.0 %
     Test CRC AE26E927
     Copy CRC AE26E927
     Track not present in AccurateRip database
     Copy OK

Track  9

     Filename I:\The Andrews Sisters - The Golden Age Of The Andrews Sisters (2002) [FLAC] (4 CD set)\Disc 1of4\09 - The Woodpecker Song.wav

     Pre-gap length  0:00:02.40

     Peak level 84.0 %
     Extraction speed 6.4 X
     Track quality 100.0 %
     Test CRC 96C98508
     Copy CRC 96C98508
     Track not present in AccurateRip database
     Copy OK

Track 10

     Filename I:\The Andrews Sisters - The Golden Age Of The Andrews Sisters (2002) [FLAC] (4 CD set)\Disc 1of4\10 - Ferryboat Serenade.wav

     Pre-gap length  0:00:02.41

     Peak level 84.0 %
     Extraction speed 6.6 X
     Track quality 100.0 %
     Test CRC 984391DD
     Copy CRC 984391DD
     Track not present in AccurateRip database
     Copy OK

Track 11

     Filename I:\The Andrews Sisters - The Golden Age Of The Andrews Sisters (2002) [FLAC] (4 CD set)\Disc 1of4\11 - Beat Me Daddy, Eight To The Bar.wav

     Pre-gap length  0:00:02.41

     Peak level 94.2 %
     Extraction speed 5.8 X
     Track quality 99.9 %
     Test CRC 16FD1AA9
     Copy CRC 16FD1AA9
     Track not present in AccurateRip database
     Copy OK

Track 12

     Filename I:\The Andrews Sisters - The Golden Age Of The Andrews Sisters (2002) [FLAC] (4 CD set)\Disc 1of4\12 - Scrub Me Mama, With A Boogie Beat.wav

     Pre-gap length  0:00:02.41

     Peak level 94.3 %
     Extraction speed 5.7 X
     Track quality 99.9 %
     Test CRC 9404C828
     Copy CRC 9404C828
     Track not present in AccurateRip database
     Copy OK

Track 13

     Filename I:\The Andrews Sisters - The Golden Age Of The Andrews Sisters (2002) [FLAC] (4 CD set)\Disc 1of4\13 - Boogie Woogie Bugle Boy.wav

     Pre-gap length  0:00:02.40

     Peak level 84.0 %
     Extraction speed 7.0 X
     Track quality 100.0 %
     Test CRC F6539875
     Copy CRC F6539875
     Track not present in AccurateRip database
     Copy OK

Track 14

     Filename I:\The Andrews Sisters - The Golden Age Of The Andrews Sisters (2002) [FLAC] (4 CD set)\Disc 1of4\14 - I'll Be With You In Apple Blossom Time.wav

     Pre-gap length  0:00:02.40

     Peak level 94.3 %
     Extraction speed 7.3 X
     Track quality 100.0 %
     Test CRC B5115730
     Copy CRC B5115730
     Track not present in AccurateRip database
     Copy OK

Track 15

     Filename I:\The Andrews Sisters - The Golden Age Of The Andrews Sisters (2002) [FLAC] (4 CD set)\Disc 1of4\15 - Aurora.wav

     Pre-gap length  0:00:02.41

     Peak level 94.2 %
     Extraction speed 7.4 X
     Track quality 100.0 %
     Test CRC 6013D052
     Copy CRC 6013D052
     Track not present in AccurateRip database
     Copy OK

Track 16

     Filename I:\The Andrews Sisters - The Golden Age Of The Andrews Sisters (2002) [FLAC] (4 CD set)\Disc 1of4\16 - The Shrine of St. Cecilia.wav

     Pre-gap length  0:00:02.40

     Peak level 94.2 %
     Extraction speed 7.6 X
     Track quality 100.0 %
     Test CRC 2E6145FD
     Copy CRC 2E6145FD
     Track not present in AccurateRip database
     Copy OK

Track 17

     Filename I:\The Andrews Sisters - The Golden Age Of The Andrews Sisters (2002) [FLAC] (4 CD set)\Disc 1of4\17 - Three Little Sisters.wav

     Pre-gap length  0:00:02.41

     Peak level 94.3 %
     Extraction speed 7.4 X
     Track quality 100.0 %
     Test CRC 13FEF2FE
     Copy CRC 13FEF2FE
     Track not present in AccurateRip database
     Copy OK

Track 18

     Filename I:\The Andrews Sisters - The Golden Age Of The Andrews Sisters (2002) [FLAC] (4 CD set)\Disc 1of4\18 - Strip Polka.wav

     Pre-gap length  0:00:02.41

     Peak level 83.9 %
     Extraction speed 7.8 X
     Track quality 100.0 %
     Test CRC E0FF0483
     Copy CRC E0FF0483
     Track not present in AccurateRip database
     Copy OK

Track 19

     Filename I:\The Andrews Sisters - The Golden Age Of The Andrews Sisters (2002) [FLAC] (4 CD set)\Disc 1of4\19 - Pistol Packin' Mama (with Bing Crosby).wav

     Pre-gap length  0:00:02.41

     Peak level 92.7 %
     Extraction speed 7.9 X
     Track quality 100.0 %
     Test CRC 57989F31
     Copy CRC 57989F31
     Track not present in AccurateRip database
     Copy OK

Track 20

     Filename I:\The Andrews Sisters - The Golden Age Of The Andrews Sisters (2002) [FLAC] (4 CD set)\Disc 1of4\20 - Victory Polka (with Bing Crosby).wav

     Pre-gap length  0:00:02.41

     Peak level 94.3 %
     Extraction speed 8.1 X
     Track quality 100.0 %
     Test CRC AA42C3E8
     Copy CRC AA42C3E8
     Track not present in AccurateRip database
     Copy OK

Track 21

     Filename I:\The Andrews Sisters - The Golden Age Of The Andrews Sisters (2002) [FLAC] (4 CD set)\Disc 1of4\21 - Shoo-Shoo Baby.wav

     Pre-gap length  0:00:02.41

     Peak level 94.3 %
     Extraction speed 8.3 X
     Track quality 100.0 %
     Test CRC 40364E3E
     Copy CRC 40364E3E
     Track not present in AccurateRip database
     Copy OK

Track 22

     Filename I:\The Andrews Sisters - The Golden Age Of The Andrews Sisters (2002) [FLAC] (4 CD set)\Disc 1of4\22 - Straighten Up And Fly Right.wav

     Pre-gap length  0:00:02.40

     Peak level 94.1 %
     Extraction speed 6.6 X
     Track quality 99.9 %
     Test CRC B297D367
     Copy CRC B297D367
     Track not present in AccurateRip database
     Copy OK

Track 23

     Filename I:\The Andrews Sisters - The Golden Age Of The Andrews Sisters (2002) [FLAC] (4 CD set)\Disc 1of4\23 - Is You Is, Or Is You Ain't Ma Baby (with Bing Crosby).wav

     Pre-gap length  0:00:02.41

     Peak level 84.0 %
     Extraction speed 7.1 X
     Track quality 99.9 %
     Test CRC 8F23E673
     Copy CRC 8F23E673
     Track not present in AccurateRip database
     Copy OK

Track 24

     Filename I:\The Andrews Sisters - The Golden Age Of The Andrews Sisters (2002) [FLAC] (4 CD set)\Disc 1of4\24 - (There'll Be A) Hot Time In The Town Of Berlin (with Bing Crosby).wav

     Pre-gap length  0:00:02.41

     Peak level 94.3 %
     Extraction speed 8.6 X
     Track quality 100.0 %
     Test CRC 3624FBB1
     Copy CRC 3624FBB1
     Track not present in AccurateRip database
     Copy OK

Track 25

     Filename I:\The Andrews Sisters - The Golden Age Of The Andrews Sisters (2002) [FLAC] (4 CD set)\Disc 1of4\25 - Don't Fence Me In (with Bing Crosby).wav

     Pre-gap length  0:00:02.41

     Peak level 94.3 %
     Extraction speed 8.7 X
     Track quality 100.0 %
     Test CRC FF11F55C
     Copy CRC FF11F55C
     Track not present in AccurateRip database
     Copy OK


None of the tracks are present in the AccurateRip database

No errors occurred

End of status report

==== Log checksum 9506B59B267FA6391F6F7A4724B93F04ABD6CA55A29F5443F0CF182DCADF24F9 ====



Create a new paste based on this one


Comments: