[ create a new paste ] login | about

Link: http://codepad.org/HOEvwIu3    [ raw code | fork ]

Plain Text, pasted on Aug 26:
EAC extraction logfile from 26. May 2007, 11:48 for CD
The Nat ''King'' Cole Trio / The Complete Capitol Recordings Of The Nat ''King'' Cole Trio - Disc 02

Used drive  : HL-DT-STDVD-ROM GDR8164B   Adapter: 0  ID: 1
Read mode   : Secure with NO C2, accurate stream, disable cache
Read offset correction : 102
Overread into Lead-In and Lead-Out : No

Used output format : C:\Programmi\Exact Audio Copy\flac.exe   (User Defined Encoder)
                     128 kBit/s
                     Additional command line options : -V -8 -T "artist=%a" -T "title=%t" -T "album=%g" -T "date=%y" -T "tracknumber=%n" -T "genre=%m" %s                  

Other options      : 
    Fill up missing offset samples with silence : Yes
    Delete leading and trailing silent blocks : No
    Installed external ASPI interface


Track  1
     Filename D:\TORRENTS\Nat King Cole - The Complete Capitol Recordings of the N.K.C. Trio (1991) [FLAC] {Mosaic MD18 - 138}\CD 2\01 - Tha Man I Love (F1).wav

     Pre-gap length  0:00:02.44

     Peak level 90.0 %
     Track quality 100.0 %
     Test CRC 490A6462
     Copy CRC 490A6462
     Copy OK

Track  2
     Filename D:\TORRENTS\Nat King Cole - The Complete Capitol Recordings of the N.K.C. Trio (1991) [FLAC] {Mosaic MD18 - 138}\CD 2\02 - Body And Soul (F1).wav

     Pre-gap length  0:00:02.66

     Peak level 95.1 %
     Track quality 100.0 %
     Test CRC B659FC60
     Copy CRC B659FC60
     Copy OK

Track  3
     Filename D:\TORRENTS\Nat King Cole - The Complete Capitol Recordings of the N.K.C. Trio (1991) [FLAC] {Mosaic MD18 - 138}\CD 2\03 - Prelude In C Sharp Minor (F1).wav

     Pre-gap length  0:00:02.86

     Peak level 88.9 %
     Track quality 100.0 %
     Test CRC DC57B4DD
     Copy CRC DC57B4DD
     Copy OK

Track  4
     Filename D:\TORRENTS\Nat King Cole - The Complete Capitol Recordings of the N.K.C. Trio (1991) [FLAC] {Mosaic MD18 - 138}\CD 2\04 - What Is This Thing Called Love (F1).wav

     Pre-gap length  0:00:02.00

     Peak level 99.7 %
     Track quality 99.9 %
     Test CRC 170A7814
     Copy CRC 170A7814
     Copy OK

Track  5
     Filename D:\TORRENTS\Nat King Cole - The Complete Capitol Recordings of the N.K.C. Trio (1991) [FLAC] {Mosaic MD18 - 138}\CD 2\05 - After You Get What You Want, You Don't Want It (G1).wav

     Pre-gap length  0:00:02.36

     Peak level 74.1 %
     Track quality 100.0 %
     Test CRC E887D327
     Copy CRC E887D327
     Copy OK

Track  6
     Filename D:\TORRENTS\Nat King Cole - The Complete Capitol Recordings of the N.K.C. Trio (1991) [FLAC] {Mosaic MD18 - 138}\CD 2\06 - Look What You've Done To Me (G1).wav

     Pre-gap length  0:00:02.73

     Peak level 73.0 %
     Track quality 100.0 %
     Test CRC 0E6A64C8
     Copy CRC 0E6A64C8
     Copy OK

Track  7
     Filename D:\TORRENTS\Nat King Cole - The Complete Capitol Recordings of the N.K.C. Trio (1991) [FLAC] {Mosaic MD18 - 138}\CD 2\07 - Easy Listening Blues (G1).wav

     Pre-gap length  0:00:01.93

     Peak level 100.0 %
     Track quality 100.0 %
     Test CRC 4AB685ED
     Copy CRC 4AB685ED
     Copy OK

Track  8
     Filename D:\TORRENTS\Nat King Cole - The Complete Capitol Recordings of the N.K.C. Trio (1991) [FLAC] {Mosaic MD18 - 138}\CD 2\08 - I Realize Now (G1).wav

     Pre-gap length  0:00:02.20

     Peak level 79.2 %
     Track quality 100.0 %
     Test CRC 008F13AE
     Copy CRC 008F13AE
     Copy OK

Track  9
     Filename D:\TORRENTS\Nat King Cole - The Complete Capitol Recordings of the N.K.C. Trio (1991) [FLAC] {Mosaic MD18 - 138}\CD 2\09 - Please Consider Me (H1).wav

     Pre-gap length  0:00:01.66

     Peak level 87.4 %
     Track quality 99.9 %
     Test CRC 0FF37EE0
     Copy CRC 0FF37EE0
     Copy OK

Track 10
     Filename D:\TORRENTS\Nat King Cole - The Complete Capitol Recordings of the N.K.C. Trio (1991) [FLAC] {Mosaic MD18 - 138}\CD 2\10 - Bring Another Drink (H1).wav

     Pre-gap length  0:00:02.50

     Peak level 87.4 %
     Track quality 99.9 %
     Test CRC 0F87168B
     Copy CRC 0F87168B
     Copy OK

Track 11
     Filename D:\TORRENTS\Nat King Cole - The Complete Capitol Recordings of the N.K.C. Trio (1991) [FLAC] {Mosaic MD18 - 138}\CD 2\11 - I'd Love To Make Love To You (I1).wav

     Pre-gap length  0:00:02.40

     Peak level 74.1 %
     Track quality 100.0 %
     Test CRC 86DD586E
     Copy CRC 86DD586E
     Copy OK

Track 12
     Filename D:\TORRENTS\Nat King Cole - The Complete Capitol Recordings of the N.K.C. Trio (1991) [FLAC] {Mosaic MD18 - 138}\CD 2\12 - I'm A Shy Guy (I1).wav

     Pre-gap length  0:00:02.64

     Peak level 73.1 %
     Track quality 100.0 %
     Test CRC 103D5C41
     Copy CRC 103D5C41
     Copy OK

Track 13
     Filename D:\TORRENTS\Nat King Cole - The Complete Capitol Recordings of the N.K.C. Trio (1991) [FLAC] {Mosaic MD18 - 138}\CD 2\13 - Katusha (I1).wav

     Pre-gap length  0:00:02.33

     Peak level 74.3 %
     Track quality 100.0 %
     Test CRC D740B0F8
     Copy CRC D740B0F8
     Copy OK

Track 14
     Filename D:\TORRENTS\Nat King Cole - The Complete Capitol Recordings of the N.K.C. Trio (1991) [FLAC] {Mosaic MD18 - 138}\CD 2\14 - It Only Happens Once (I1).wav

     Pre-gap length  0:00:02.86

     Peak level 79.4 %
     Track quality 100.0 %
     Test CRC 0E384A5E
     Copy CRC 0E384A5E
     Copy OK

Track 15
     Filename D:\TORRENTS\Nat King Cole - The Complete Capitol Recordings of the N.K.C. Trio (1991) [FLAC] {Mosaic MD18 - 138}\CD 2\15 - You're Nobody 'Til Somebody Loves You (J1).wav

     Pre-gap length  0:00:02.46

     Peak level 70.6 %
     Track quality 100.0 %
     Test CRC 7D6C2D6D
     Copy CRC 7D6C2D6D
     Copy OK

Track 16
     Filename D:\TORRENTS\Nat King Cole - The Complete Capitol Recordings of the N.K.C. Trio (1991) [FLAC] {Mosaic MD18 - 138}\CD 2\16 - Don't Blame Me (J1).wav

     Pre-gap length  0:00:02.16

     Peak level 84.1 %
     Track quality 100.0 %
     Test CRC 54AA82DC
     Copy CRC 54AA82DC
     Copy OK

Track 17
     Filename D:\TORRENTS\Nat King Cole - The Complete Capitol Recordings of the N.K.C. Trio (1991) [FLAC] {Mosaic MD18 - 138}\CD 2\17 - I'm In The Mood For Love (J1).wav

     Pre-gap length  0:00:02.37

     Peak level 78.7 %
     Track quality 99.9 %
     Test CRC D83C764F
     Copy CRC D83C764F
     Copy OK

Track 18
     Filename D:\TORRENTS\Nat King Cole - The Complete Capitol Recordings of the N.K.C. Trio (1991) [FLAC] {Mosaic MD18 - 138}\CD 2\18 - What Can I Say After I Say I'm Sorry (J1).wav

     Pre-gap length  0:00:02.60

     Peak level 76.6 %
     Track quality 100.0 %
     Test CRC C914DA27
     Copy CRC C914DA27
     Copy OK

Track 19
     Filename D:\TORRENTS\Nat King Cole - The Complete Capitol Recordings of the N.K.C. Trio (1991) [FLAC] {Mosaic MD18 - 138}\CD 2\19 - I'm Thru With Love (J1).wav

     Pre-gap length  0:00:02.29

     Peak level 85.1 %
     Track quality 100.0 %
     Test CRC CBB2DB50
     Copy CRC CBB2DB50
     Copy OK

No errors occured


End of status report



Create a new paste based on this one


Comments: