[ create a new paste ] login | about

Link: http://codepad.org/HTGdfHKG    [ raw code | fork ]

Plain Text, pasted on Aug 1:
foobar2000 1.3.17 / Dynamic Range Meter 1.1.1
log date: 2018-07-31 18:24:12

--------------------------------------------------------------------------------
Analyzed: ERA / THE VERY BEST OF
--------------------------------------------------------------------------------

DR         Peak         RMS     Duration Track
--------------------------------------------------------------------------------
DR10      -4.02 dB   -18.12 dB      3:49 01-AMENO
DR13      -0.01 dB   -16.52 dB      4:24 02-DON'T GO AWAY
DR12      -0.30 dB   -16.82 dB      3:40 03-THE MASS
DR11      -4.22 dB   -19.79 dB      4:07 04-MOTHER
DR10      -3.66 dB   -18.19 dB      4:03 05-MISERE MANI
DR13      -0.05 dB   -17.35 dB      4:19 06-AVEMANO ORCHESTRAL
DR13      -0.42 dB   -16.77 dB      4:09 07-LOOKING FOR SOMETHING
DR10      -0.74 dB   -15.39 dB      2:58 08-DON'T U
DR13      -0.38 dB   -16.08 dB      3:34 09-ENEA VOLARE
DR11      -2.09 dB   -18.02 dB      3:18 10-CATHAR RHYTHM
DR9       -3.57 dB   -16.35 dB      3:52 11-DIVANO
DR14      -0.47 dB   -18.31 dB      3:39 12-DON'T YOU FORGET
DR10      -2.54 dB   -16.68 dB      4:53 13-HYMNE
DR9       -4.76 dB   -17.49 dB      4:53 14-SENTENCE
DR8       -4.23 dB   -18.12 dB      4:23 15-I BELIEVE
DR9       -4.47 dB   -17.69 dB      3:18 16-LOOKING FOR SOMETHING
--------------------------------------------------------------------------------

Number of tracks:  16
Official DR value: DR11

Samplerate:        88200 Hz
Channels:          6
Bits per sample:   24
Bitrate:           7949 kbps
Codec:             FLAC
================================================================================




Create a new paste based on this one


Comments: