[ create a new paste ] login | about

Link: http://codepad.org/HTxLzyIT    [ raw code | fork ]

Plain Text, pasted on Mar 7:
foobar2000 1.5 / Dynamic Range Meter 1.1.1
log date: 2020-03-07 08:17:49

--------------------------------------------------------------------------------
Analyzed: Sarah Brightman / ?
--------------------------------------------------------------------------------

DR         Peak         RMS     Duration Track
--------------------------------------------------------------------------------
DR9       -9.44 dB   -25.45 dB      2:51 01-La Luna
DR9       -6.55 dB   -19.43 dB      4:34 02-Winter In July
DR9       -6.69 dB   -21.39 dB      4:11 03-Scarborough Fair
DR10      -6.75 dB   -22.51 dB      4:37 04-Figlio Perduto
DR9       -6.62 dB   -20.32 dB      3:40 05-A Whiter Shade of Pale
DR9       -6.53 dB   -21.59 dB      4:29 06-He Doesnt See Me
DR9      -14.47 dB   -28.73 dB      1:14 07-Serenade
DR9       -6.66 dB   -21.71 dB      2:13 08-How Fair This Spot
DR9       -6.22 dB   -21.31 dB      4:28 09-Hijo De La Luna
DR9       -6.36 dB   -19.86 dB      5:24 10-Here With Me
DR10      -6.86 dB   -22.61 dB      2:47 11-La Califfa
DR9       -6.53 dB   -20.64 dB      6:12 12-This Love
DR9       -6.98 dB   -21.78 dB      3:07 13-Solo Con te
DR10      -6.87 dB   -22.36 dB      3:48 14-Gloomy Sunday
DR11      -6.67 dB   -24.67 dB      4:58 15-La Luna
--------------------------------------------------------------------------------

Number of tracks:  15
Official DR value: DR9

Samplerate:        2822400 Hz / PCM Samplerate: 44100 Hz
Channels:          6
Bits per sample:   1
Bitrate:           16934 kbps
Codec:             DST64
================================================================================

--------------------------------------------------------------------------------
Analyzed: Sarah Brightman / ?
--------------------------------------------------------------------------------

DR         Peak         RMS     Duration Track
--------------------------------------------------------------------------------
DR10      -7.05 dB   -19.81 dB      2:51 01-La Luna
DR7       -6.00 dB   -14.83 dB      4:34 02-Winter In July
DR7       -6.27 dB   -16.10 dB      4:11 03-Scarborough Fair
DR8       -6.31 dB   -17.34 dB      4:37 04-Figlio Perduto
DR7       -6.30 dB   -15.12 dB      3:40 05-A Whiter Shade of Pale
DR7       -6.35 dB   -16.34 dB      4:29 06-He Doesnt See Me
DR9      -12.43 dB   -24.17 dB      1:14 07-Serenade
DR7       -6.37 dB   -16.48 dB      2:13 08-How Fair This Spot
DR7       -6.33 dB   -16.11 dB      4:28 09-Hijo De La Luna
DR7       -6.20 dB   -15.07 dB      5:24 10-Here With Me
DR7       -6.38 dB   -17.31 dB      2:47 11-La Califfa
DR7       -6.30 dB   -15.84 dB      6:12 12-This Love
DR7       -6.37 dB   -16.34 dB      3:07 13-Solo Con te
DR8       -6.33 dB   -16.79 dB      3:48 14-Gloomy Sunday
DR9       -6.37 dB   -19.27 dB      4:58 15-La Luna
--------------------------------------------------------------------------------

Number of tracks:  15
Official DR value: DR8

Samplerate:        2822400 Hz / PCM Samplerate: 44100 Hz
Channels:          2
Bits per sample:   1
Bitrate:           5645 kbps
Codec:             DST64
================================================================================




Create a new paste based on this one


Comments: