[ create a new paste ] login | about

Link: http://codepad.org/HUcORr38    [ raw code | fork ]

Plain Text, pasted on Jul 11:
[CUETools log; Date: 7/11/2018 7:26:17 AM; Version: 2.1.5]
[CTDB TOCID: jwoe4MG2_q3KLwFcCJ5tHKUzmTs-] found.
Track | CTDB Status
  1   | (259/267) Accurately ripped, or (1/267) differs in 1820 samples @00:18:27-00:18:29
  2   | (261/267) Accurately ripped
  3   | (261/267) Accurately ripped
  4   | (261/267) Accurately ripped
  5   | (260/267) Accurately ripped
  6   | (261/267) Accurately ripped
  7   | (261/267) Accurately ripped
  8   | (261/267) Accurately ripped
  9   | (261/267) Accurately ripped
 10   | (256/267) Accurately ripped
[AccurateRip ID: 001c1af4-00d731da-9210be0a] found.
Track   [  CRC   |   V2   ] Status
 01     [cd92e01c|03543205] (007+030/147) Accurately ripped
 02     [0b14915f|98abfb65] (007+029/144) Accurately ripped
 03     [865a1851|ef26d3d6] (007+029/144) Accurately ripped
 04     [4dff8ca5|2db75226] (007+029/146) Accurately ripped
 05     [37a14794|06c892a1] (007+029/146) Accurately ripped
 06     [bb80f648|54767cfc] (007+029/145) Accurately ripped
 07     [c028faa4|d6bf7656] (007+029/145) Accurately ripped
 08     [7a6e3d39|1bf12dab] (007+029/146) Accurately ripped
 09     [c69bd7c2|5b85154b] (007+029/146) Accurately ripped
 10     [b0bf87b1|9474aa9e] (007+030/146) Accurately ripped
Offsetted by -637:
 01     [89796732] (014/147) Accurately ripped
 02     [d3c772bd] (014/144) Accurately ripped
 03     [85a1dc3d] (014/144) Accurately ripped
 04     [e2dc4119] (014/146) Accurately ripped
 05     [2bf51dda] (014/146) Accurately ripped
 06     [6b6a97df] (014/145) Accurately ripped
 07     [04dd0dfe] (014/145) Accurately ripped
 08     [bc0e593b] (014/146) Accurately ripped
 09     [a4729ead] (014/146) Accurately ripped
 10     [ecf62349] (014/146) Accurately ripped
Offsetted by -634:
 01     [28d87117] (003/147) Accurately ripped
 02     [18cf0861] (002/144) Accurately ripped
 03     [b1a016c8] (002/144) Accurately ripped
 04     [93a1598f] (002/146) Accurately ripped
 05     [85bd7e06] (003/146) Accurately ripped
 06     [3a5ca1f6] (003/145) Accurately ripped
 07     [fe07b2de] (002/145) Accurately ripped
 08     [eb7bb423] (003/146) Accurately ripped
 09     [83409418] (003/146) Accurately ripped
 10     [e09f12e1] (003/146) Accurately ripped
Offsetted by 30:
 01     [7a304d2a] (022/147) Accurately ripped
 02     [66c080ed] (021/144) Accurately ripped
 03     [d2b335d5] (022/144) Accurately ripped
 04     [2b3d6296] (022/146) Accurately ripped
 05     [a19e205f] (022/146) Accurately ripped
 06     [d0f55b2e] (022/145) Accurately ripped
 07     [b90720fc] (022/145) Accurately ripped
 08     [6615525d] (022/146) Accurately ripped
 09     [7aa76df0] (022/146) Accurately ripped
 10     [3558e3a1] (022/146) Accurately ripped
Offsetted by 633:
 01     [a4d5e6f4] (003/147) Accurately ripped
 02     [f581bda8] (003/144) Accurately ripped
 03     [9250f230] (003/144) Accurately ripped
 04     [08c6ea6e] (003/146) Accurately ripped
 05     [7941be01] (003/146) Accurately ripped
 06     [4cff473d] (002/145) Accurately ripped
 07     [a2466467] (002/145) Accurately ripped
 08     [c72d5162] (003/146) Accurately ripped
 09     [6a5d1ef3] (003/146) Accurately ripped
 10     [84fd01f9] (002/146) Accurately ripped
Offsetted by 699:
 01     [a59e0f8b] (005/147) Accurately ripped
 02     [6617d973] (005/144) Accurately ripped
 03     [4133bede] (005/144) Accurately ripped
 04     [3e9ec899] (005/146) Accurately ripped
 05     [ea0446da] (005/146) Accurately ripped
 06     [15cc2537] (005/145) Accurately ripped
 07     [7af33ccf] (005/145) Accurately ripped
 08     [fe35ded2] (005/146) Accurately ripped
 09     [90103625] (005/146) Accurately ripped
 10     [75819909] (005/146) Accurately ripped
Offsetted by 1363:
 01     [c28e7613] (012/147) Accurately ripped
 02     [ebda1f65] (013/144) Accurately ripped
 03     [b28bc6d4] (013/144) Accurately ripped
 04     [f0355092] (013/146) Accurately ripped
 05     [fb0fb986] (013/146) Accurately ripped
 06     [accdde06] (013/145) Accurately ripped
 07     [371a6ce5] (013/145) Accurately ripped
 08     [541e0d00] (013/146) Accurately ripped
 09     [87770ffd] (013/146) Accurately ripped
 10     [ca3b69c9] (013/146) Accurately ripped
Offsetted by -631:
 01     [a65756f5] (000/147) No match (V2 was not tested)
 02     [bafc8b52] (000/144) No match (V2 was not tested)
 03     [dde65199] (000/144) No match (V2 was not tested)
 04     [c642728f] (000/146) No match (V2 was not tested)
 05     [e34ce670] (000/146) No match (V2 was not tested)
 06     [094eac0d] (000/145) No match (V2 was not tested)
 07     [4c067b0a] (000/145) No match (V2 was not tested)
 08     [1e162027] (000/146) No match (V2 was not tested)
 09     [620e8983] (000/146) No match (V2 was not tested)
 10     [d4480279] (000/146) No match (V2 was not tested)
Offsetted by 36:
 01     [41918892] (000/147) No match (V2 was not tested)
 02     [0c69ff26] (000/144) No match (V2 was not tested)
 03     [15fea260] (000/144) No match (V2 was not tested)
 04     [21b20027] (000/146) No match (V2 was not tested)
 05     [fee0e1fa] (000/146) No match (V2 was not tested)
 06     [6ed96f5c] (000/145) No match (V2 was not tested)
 07     [1e345610] (000/145) No match (V2 was not tested)
 08     [13beeab1] (000/146) No match (V2 was not tested)
 09     [384358c6] (000/146) No match (V2 was not tested)
 10     [1caac2d1] (000/146) No match (V2 was not tested)

Track Peak [ CRC32  ] [W/O NULL] [  LOG   ]
 --  100.0 [16D76365] [5BA39F7C]   CRC32   
 01   89.9 [5B0617D1] [AE081C03]           
 02   98.1 [B8741523] [7FDCAF81]           
 03   89.8 [3AAD01C4] [7CFFFEB3]           
 04   89.7 [8CCA1DA9] [64734498]           
 05   85.7 [EF60EFDB] [9CF0816B]           
 06   97.3 [43553B6F] [7D381941]           
 07   54.4 [CDD7E882] [9848E8A6]           
 08  100.0 [FE256212] [9C359201]           
 09   92.5 [409A5EF5] [28814A6A]           
 10   99.2 [18C49C61] [7AEDDAFA]           



Create a new paste based on this one


Comments: