[ create a new paste ] login | about

Link: http://codepad.org/HbO7NRTz    [ raw code | fork ]

Plain Text, pasted on Oct 23:
foobar2000 1.6 / Dynamic Range Meter 1.1.1
log date: 2020-10-23 01:58:16

--------------------------------------------------------------------------------
Analyzed: Earl Klugh & Bob James / Two Of Kind
--------------------------------------------------------------------------------

DR         Peak         RMS     Duration Track
--------------------------------------------------------------------------------
DR15      -1.62 dB   -20.93 dB      8:50 01-The Falcon
DR17      -0.04 dB   -20.48 dB      5:25 02-Whiplash
DR13      -8.46 dB   -24.14 dB      5:36 03-Sandstorm
DR14      -0.08 dB   -17.71 dB      6:48 04-Where I Wander
DR13      -2.18 dB   -19.66 dB      3:04 05-Ingenue
DR14      -0.05 dB   -17.89 dB      7:51 06-Wes
--------------------------------------------------------------------------------

Number of tracks:  6
Official DR value: DR15

Samplerate:        44100 Hz
Channels:          2
Bits per sample:   16
Bitrate:           660 kbps
Codec:             FLAC
================================================================================




Create a new paste based on this one


Comments: