[ create a new paste ] login | about

Link: http://codepad.org/HbZ6n6K1    [ raw code | fork ]

Plain Text, pasted on Nov 13:
foobar2000 1.4.6 / Dynamic Range Meter 1.1.1
log date: 2019-11-13 08:34:10

--------------------------------------------------------------------------------
Analyzed: Procol Harum / Procol Harum [2003 Classic Records Remaster]
--------------------------------------------------------------------------------

DR         Peak         RMS     Duration Track
--------------------------------------------------------------------------------
DR9       -1.55 dB   -12.98 dB      4:06 01-Homburg
DR9       -0.84 dB   -11.13 dB      3:29 02-She Wandered Through The Garden Fence
DR12      -1.58 dB   -14.90 dB      3:42 03-Something Following Me
DR11      -3.01 dB   -15.82 dB      1:58 04-Mabel
DR11      -0.69 dB   -14.56 dB      5:09 05-Cerdes (outside the gates of)
DR11      -0.21 dB   -12.47 dB      4:54 06-A Christmas Camel
DR11       0.00 dB   -12.61 dB      2:58 07-Kaleidoscope
DR9       -0.28 dB   -10.97 dB      3:43 08-Salad Days (Are Here Again)
DR11      -0.67 dB   -13.74 dB      2:41 09-Conquistador
DR10      -0.86 dB   -14.35 dB      5:07 10-Repent Walpurgis
DR10      -0.68 dB   -12.90 dB      4:13 11-A Whiter Shade Of Pale [12-inch 45RPM mono]
DR10      -1.04 dB   -12.91 dB      4:11 12-A Whiter Shade Of pale [12-inch 33 RPM mono]
DR10      -0.07 dB   -12.21 dB      4:16 13-A Whiter Shade Of Pale [2003 alternate stereo mix 7-inch]
DR10      -0.25 dB   -12.64 dB      3:00 14-Lime Street [2003 alternate stereo mix 7-inch]
--------------------------------------------------------------------------------

Number of tracks:  14
Official DR value: DR10

Samplerate:        44100 Hz
Channels:          2
Bits per sample:   16
Bitrate:           968 kbps
Codec:             FLAC
================================================================================




Create a new paste based on this one


Comments: