[ create a new paste ] login | about

Link: http://codepad.org/HhRTaf4u    [ raw code | fork ]

Plain Text, pasted on Sep 11:
1974 - Bad Company

[CUETools log; Date: 9/11/2019 10:34:23 AM; Version: 2.1.5]
[CTDB TOCID: G4BzwYPFvZENswHtJ9rVQfLJdEA-] found.
Track | CTDB Status
  1   | (192/193) Accurately ripped
  2   | (193/193) Accurately ripped
  3   | (193/193) Accurately ripped
  4   | (193/193) Accurately ripped
  5   | (192/193) Accurately ripped
  6   | (193/193) Accurately ripped
  7   | (192/193) Accurately ripped
  8   | (191/193) Accurately ripped
[AccurateRip ID: 000ae78b-0048e73d-6b083208] found.
Track   [  CRC   |   V2   ] Status
 01     [25817e85|d84fde74] (00+07/88) Accurately ripped
 02     [f2bcb57c|16b08384] (00+07/88) Accurately ripped
 03     [2904ae0c|75e41f4e] (00+07/88) Accurately ripped
 04     [95a90e4a|d5857184] (00+07/88) Accurately ripped
 05     [e7ba18de|d33dc073] (00+07/88) Accurately ripped
 06     [bcfe9d4d|0662534e] (00+07/87) Accurately ripped
 07     [60c4bfb0|5706f1b0] (00+07/88) Accurately ripped
 08     [31db31e5|9be78ed9] (00+07/87) Accurately ripped
Offsetted by 12:
 01     [7a3eed09] (03/88) Accurately ripped
 02     [373b91b4] (03/88) Accurately ripped
 03     [5e5dccdc] (03/88) Accurately ripped
 04     [0dec8b8a] (03/88) Accurately ripped
 05     [d16954e2] (03/88) Accurately ripped
 06     [3d2f06ed] (03/87) Accurately ripped
 07     [f1d9fb8c] (03/88) Accurately ripped
 08     [dd33a62d] (03/87) Accurately ripped
Offsetted by -6:
 01     [7b22c743] (00/88) No match (V2 was not tested)
 02     [507d4760] (00/88) No match (V2 was not tested)
 03     [0e581ea4] (00/88) No match (V2 was not tested)
 04     [d9874faa] (00/88) No match (V2 was not tested)
 05     [72e27adc] (00/88) No match (V2 was not tested)
 06     [fce6687d] (00/87) No match (V2 was not tested)
 07     [183a21c2] (00/88) No match (V2 was not tested)
 08     [dc2ef7c1] (00/87) No match (V2 was not tested)
Offsetted by 18:
 01     [249da44b] (00/88) No match (V2 was not tested)
 02     [d97affd0] (00/88) No match (V2 was not tested)
 03     [790a5c44] (00/88) No match (V2 was not tested)
 04     [ca0e4a2a] (00/88) No match (V2 was not tested)
 05     [4640f2e4] (00/88) No match (V2 was not tested)
 06     [fd473bbd] (00/87) No match (V2 was not tested)
 07     [3a64997a] (00/88) No match (V2 was not tested)
 08     [32dfe051] (00/87) No match (V2 was not tested)

Track Peak [ CRC32  ] [W/O NULL] [  LOG   ]
 --   98.9 [E09ED7C4] [2A5B6FCB]   CRC32   
 01   98.8 [8501D8B7] [B25F2135]           
 02   98.6 [ED2C71C3] [61265241]           
 03   98.9 [E35284AC] [9557FBAF]           
 04   98.8 [9C509292] [FB478C8C]           
 05   98.8 [3BBCDE9F] [5D39BAFD]           
 06   98.8 [843CB81D] [D91A7ADE]           
 07   98.9 [D50C8D61] [9BA8188B]           
 08   80.6 [AEC208C6] [6F0465B6]           

=========================================================================================================================================================

1975 - Straight Shooter

[CUETools log; Date: 9/11/2019 10:34:15 AM; Version: 2.1.5]
[CTDB TOCID: iYl5GMApc5JqHO.fDJRcI1RzjmI-] found.
Track | CTDB Status
  1   | (160/160) Accurately ripped
  2   | (160/160) Accurately ripped
  3   | (160/160) Accurately ripped
  4   | (160/160) Accurately ripped
  5   | (160/160) Accurately ripped
  6   | (160/160) Accurately ripped
  7   | (160/160) Accurately ripped
  8   | (160/160) Accurately ripped
[AccurateRip ID: 000ba61a-004e6d67-72091908] found.
Track   [  CRC   |   V2   ] Status
 01     [6ff71c42|1665af9e] (00+05/63) Accurately ripped
 02     [780bd225|20872f96] (00+05/63) Accurately ripped
 03     [2a4a8189|560e0cfd] (00+05/61) Accurately ripped
 04     [7254134f|30f04b20] (00+05/63) Accurately ripped
 05     [e4e5746c|fbd81703] (00+05/63) Accurately ripped
 06     [5bfe125b|691b41c6] (00+05/63) Accurately ripped
 07     [4d5334cc|e43c7c28] (00+05/61) Accurately ripped
 08     [1406bbaf|ee014d3a] (00+05/63) Accurately ripped
Offsetted by -6:
 01     [1e3d7d60] (00/63) No match (V2 was not tested)
 02     [2db7e217] (00/63) No match (V2 was not tested)
 03     [68ba8589] (00/61) No match
 04     [5635820b] (00/63) No match (V2 was not tested)
 05     [c0184a2c] (00/63) No match (V2 was not tested)
 06     [0b87613f] (00/63) No match (V2 was not tested)
 07     [b61f9f97] (00/61) No match
 08     [10e49ff6] (00/63) No match (V2 was not tested)
Offsetted by 12:
 01     [136a5a06] (00/63) No match (V2 was not tested)
 02     [0cb3b241] (00/63) No match (V2 was not tested)
 03     [ad6a7989] (00/61) No match (V2 was not tested)
 04     [aa9135d7] (00/63) No match (V2 was not tested)
 05     [2e7fc8ec] (00/63) No match (V2 was not tested)
 06     [fceb7493] (00/63) No match (V2 was not tested)
 07     [804f5f74] (00/61) No match (V2 was not tested)
 08     [1a5df2e3] (00/63) No match (V2 was not tested)
Offsetted by 18:
 01     [6523f8e8] (00/63) No match (V2 was not tested)
 02     [5707a24f] (00/63) No match (V2 was not tested)
 03     [6efa7589] (00/61) No match (V2 was not tested)
 04     [c6afc71b] (00/63) No match (V2 was not tested)
 05     [534cf32c] (00/63) No match (V2 was not tested)
 06     [4d6225af] (00/63) No match (V2 was not tested)
 07     [b2995a5c] (00/61) No match (V2 was not tested)
 08     [1d890e61] (00/63) No match (V2 was not tested)

Track Peak [ CRC32  ] [W/O NULL] [  LOG   ]
 --   99.3 [A76DD334] [55A633C6]   CRC32   
 01   99.2 [FC40AA6D] [6B480787]           
 02   98.8 [47EAC812] [8DCA0811]           
 03   99.3 [683C1926] [6E11A935]           
 04   99.0 [8E378477] [F0C7477B]           
 05   99.2 [AC48DF64] [8AD72080]           
 06   99.0 [5DD0ACE2] [3A47FE2C]           
 07   98.8 [BD9D8CF4] [4EAED352]           
 08   98.6 [10A3434D] [E37121A4]           

=========================================================================================================================================================

1976 - Burnin' Sky

[CUETools log; Date: 9/11/2019 10:34:43 AM; Version: 2.1.5]
[CTDB TOCID: _X0XCRooDXLr9g65jyk6CAnOWYw-] found.
Track | CTDB Status
  1   | (72/72) Accurately ripped
  2   | (72/72) Accurately ripped
  3   | (72/72) Accurately ripped
  4   | (72/72) Accurately ripped
  5   | (72/72) Accurately ripped
  6   | (72/72) Accurately ripped
  7   | (72/72) Accurately ripped
  8   | (72/72) Accurately ripped
  9   | (72/72) Accurately ripped
 10   | (72/72) Accurately ripped
 11   | (72/72) Accurately ripped
 12   | (72/72) Accurately ripped
[AccurateRip ID: 00139320-00b36b55-8c0a9e0c] found.
Track   [  CRC   |   V2   ] Status
 01     [fe671f0b|2e253fd7] (00+05/33) Accurately ripped
 02     [efbd5cc6|e8bd15ab] (00+05/33) Accurately ripped
 03     [bf904b85|4c01ef3f] (00+05/33) Accurately ripped
 04     [16288ebe|1c41eee8] (00+05/32) Accurately ripped
 05     [7322df04|fb96c5bd] (00+05/32) Accurately ripped
 06     [d9169f55|5e945be5] (00+05/32) Accurately ripped
 07     [e3b6ea82|3f0a23af] (00+05/33) Accurately ripped
 08     [01a7b008|2d02d437] (00+05/32) Accurately ripped
 09     [6a57ee1f|2853af41] (00+05/32) Accurately ripped
 10     [7c11916e|4f484176] (00+05/33) Accurately ripped
 11     [fed7895c|0fc909c2] (00+05/33) Accurately ripped
 12     [fa690d1a|4221a70d] (00+05/32) Accurately ripped
Offsetted by 12:
 01     [c18e2131] (00/33) No match (V2 was not tested)
 02     [bc3ca670] (00/33) No match (V2 was not tested)
 03     [fb7dd8a0] (00/33) No match (V2 was not tested)
 04     [1a9a6fde] (00/32) No match (V2 was not tested)
 05     [d234ef84] (00/32) No match (V2 was not tested)
 06     [8231b2ee] (00/32) No match (V2 was not tested)
 07     [1438ecc6] (00/33) No match (V2 was not tested)
 08     [915d7dfc] (00/32) No match (V2 was not tested)
 09     [793023ab] (00/32) No match (V2 was not tested)
 10     [d10b9c56] (00/33) No match (V2 was not tested)
 11     [a0fd6258] (00/33) No match (V2 was not tested)
 12     [fdb8ef6e] (00/32) No match (V2 was not tested)

Track Peak [ CRC32  ] [W/O NULL] [  LOG   ]
 --   99.6 [431D365E] [C0EE7C4C]   CRC32   
 01   99.4 [D995A39D] [DA8DC506]           
 02   99.0 [70706122] [572AC527]           
 03   98.9 [880BDE68] [057C278D]           
 04   99.3 [9C876C84] [2611A3F8]           
 05   22.3 [6226FC8D] [2CC11FE6]           
 06   99.0 [5BCA7407] [F3EEF445]           
 07   99.0 [AEC70AB0] [25FB8A26]           
 08   99.6 [D6A55B4B] [4AB927C9]           
 09   98.9 [AEDFAF1C] [7CF7EEBF]           
 10   99.2 [B034F740] [F457C215]           
 11   97.8 [313C19BE] [F42C287E]           
 12   99.6 [A6A47FA4] [81BF71F8]           

=========================================================================================================================================================

1976 - Run With The Pack

[CUETools log; Date: 9/11/2019 10:34:05 AM; Version: 2.1.5]
[CTDB TOCID: MoVenluZHuFP9mzNROqxs4ulh5g-] found.
Track | CTDB Status
  1   | (84/84) Accurately ripped
  2   | (84/84) Accurately ripped
  3   | (84/84) Accurately ripped
  4   | (84/84) Accurately ripped
  5   | (84/84) Accurately ripped
  6   | (84/84) Accurately ripped
  7   | (84/84) Accurately ripped
  8   | (84/84) Accurately ripped
  9   | (83/84) Accurately ripped
 10   | (84/84) Accurately ripped
[AccurateRip ID: 000e5319-00724d77-7f08970a] found.
Track   [  CRC   |   V2   ] Status
 01     [015f1b18|b27f9573] (00+06/33) Accurately ripped
 02     [876edcb1|04d3c423] (00+06/33) Accurately ripped
 03     [67b7aa8f|0957a8c0] (00+06/33) Accurately ripped
 04     [9d5d3774|55838f1f] (00+06/32) Accurately ripped
 05     [0a3c85da|fe151b17] (00+06/33) Accurately ripped
 06     [c5b9309e|4a1bfb7a] (00+06/33) Accurately ripped
 07     [223d502d|732a4038] (00+06/33) Accurately ripped
 08     [c782291c|0f4d33c0] (00+06/33) Accurately ripped
 09     [5af73cb9|9e616c6c] (00+06/33) Accurately ripped
 10     [fed0e91f|a8aca060] (00+06/33) Accurately ripped
Offsetted by 12:
 01     [a959eeed] (00/33) No match (V2 was not tested)
 02     [8cd22c00] (00/33) No match (V2 was not tested)
 03     [3b7ffb5b] (00/33) No match (V2 was not tested)
 04     [ee6c33dd] (00/32) No match (V2 was not tested)
 05     [2c2d7b1d] (00/33) No match (V2 was not tested)
 06     [bef7196a] (00/33) No match (V2 was not tested)
 07     [7a491d5d] (00/33) No match (V2 was not tested)
 08     [3a8c135c] (00/33) No match (V2 was not tested)
 09     [4a5e3025] (00/33) No match (V2 was not tested)
 10     [5904939f] (00/33) No match (V2 was not tested)

Track Peak [ CRC32  ] [W/O NULL] [  LOG   ]
 --   99.8 [FFF3F315] [32D76482]   CRC32   
 01   99.6 [75D4537F] [F1DF7FB2]           
 02   99.8 [3834D3A1] [F45424E4]           
 03   99.7 [8E93A030] [F9FEB506]           
 04   99.2 [7C7F5487] [56C29668]           
 05   99.4 [D843A16F] [604DD34C]           
 06   99.5 [AB25ED5A] [B7A7773C]           
 07   99.1 [2D88D416] [2185BC9B]           
 08   99.5 [9DDA2956] [9660A91B]           
 09   99.6 [AD8525EC] [BAA9B14E]           
 10   98.9 [A5071560] [EFCF7D43]           

=========================================================================================================================================================

1979 - Desolation Angels

[CUETools log; Date: 9/11/2019 10:33:56 AM; Version: 2.1.5]
[CTDB TOCID: 50oLOHyGNSbU1g0qnGuUNK137Ag-] found.
Track | CTDB Status
  1   | (15/15) Accurately ripped
  2   | (15/15) Accurately ripped
  3   | (15/15) Accurately ripped
  4   | (15/15) Accurately ripped
  5   | (15/15) Accurately ripped
  6   | (15/15) Accurately ripped
  7   | (15/15) Accurately ripped
  8   | (15/15) Accurately ripped
  9   | (15/15) Accurately ripped
 10   | (15/15) Accurately ripped
[AccurateRip ID: 000f24f7-007a91e4-8709ab0a] found.
Track   [  CRC   |   V2   ] Status
 01     [c4cf5a5d|9c44477b] (0+6/6) Accurately ripped
 02     [5ae0f6ea|e2498cf3] (0+6/6) Accurately ripped
 03     [150de354|55317f0d] (0+6/6) Accurately ripped
 04     [fb7126a3|8f7a243f] (0+6/6) Accurately ripped
 05     [9b82c637|63bda8d7] (0+6/6) Accurately ripped
 06     [6d2633f9|a59b33f3] (0+6/6) Accurately ripped
 07     [c5cb169d|2e02e253] (0+6/6) Accurately ripped
 08     [8a50537a|e5ac51cb] (0+6/6) Accurately ripped
 09     [ce68a352|abbac1f0] (0+6/6) Accurately ripped
 10     [ca293500|93492118] (0+6/6) Accurately ripped

Track Peak [ CRC32  ] [W/O NULL] [  LOG   ]
 --  100.0 [5F7CC518] [9CC318B9]   CRC32   
 01  100.0 [8C758AEF] [3F8EDCDA]           
 02  100.0 [32B3CA3F] [DA607379]           
 03  100.0 [92ABB8C5] [2DBBC0A8]           
 04  100.0 [9CC8FDB4] [B10CE496]           
 05  100.0 [89AE3924] [9D2E8B62]           
 06  100.0 [9F13D1B0] [D52F6E01]           
 07   99.9 [49CC2E44] [9108A47A]           
 08  100.0 [E62CDF75] [169A9735]           
 09  100.0 [74DAFE20] [9EB68169]           
 10   99.5 [EEC28A44] [0613E84F]           

=========================================================================================================================================================

1982 - Rough Diamonds

[CUETools log; Date: 9/11/2019 10:34:33 AM; Version: 2.1.5]
[CTDB TOCID: H.orU3jVP.8KBfs6dugC.sshePo-] found.
Track | CTDB Status
  1   | (15/15) Accurately ripped
  2   | (15/15) Accurately ripped
  3   | (15/15) Accurately ripped
  4   | (15/15) Accurately ripped
  5   | (15/15) Accurately ripped
  6   | (15/15) Accurately ripped
  7   | (15/15) Accurately ripped
  8   | (15/15) Accurately ripped
  9   | (15/15) Accurately ripped
 10   | (15/15) Accurately ripped
[AccurateRip ID: 000eef09-007501cb-7609170a] found.
Track   [  CRC   |   V2   ] Status
 01     [6da35a70|f532a9c3] (0+6/6) Accurately ripped
 02     [b48991e2|afaaaf86] (0+6/6) Accurately ripped
 03     [d18e23a6|f758d922] (0+6/6) Accurately ripped
 04     [e45873e9|a42fb6c7] (0+6/6) Accurately ripped
 05     [cf979e78|537db641] (0+6/6) Accurately ripped
 06     [e32e8dda|e84b3e53] (0+6/6) Accurately ripped
 07     [c81590db|1852f6e5] (0+6/6) Accurately ripped
 08     [00793c78|a6ebec54] (0+6/6) Accurately ripped
 09     [ff085dc5|907f47cf] (0+6/6) Accurately ripped
 10     [f6fca78c|15778e90] (0+6/6) Accurately ripped

Track Peak [ CRC32  ] [W/O NULL] [  LOG   ]
 --  100.0 [D1FC7CFE] [B22FAF67]   CRC32   
 01   99.9 [4FD98E2C] [22CFF54E]           
 02  100.0 [A97BB92A] [4DDAD0AB]           
 03  100.0 [D039E949] [8B8E514E]           
 04  100.0 [43697D7C] [512164EF]           
 05  100.0 [B3D1F35F] [13A83461]           
 06  100.0 [0D70486F] [EFA63778]           
 07   99.3 [742DC248] [497F2C0A]           
 08  100.0 [6B924017] [09CD95A0]           
 09  100.0 [C5A20DC7] [6AFDB9E7]           
 10  100.0 [157BA554] [A5121D64]           




Create a new paste based on this one


Comments: