[ create a new paste ] login | about

Link: http://codepad.org/HjS17Mko    [ raw code | fork ]

Plain Text, pasted on May 8:
foobar2000 1.4.1 / Dynamic Range Meter 1.1.1
log date: 2019-05-07 18:56:35

--------------------------------------------------------------------------------
Analyzed: ? / ?
--------------------------------------------------------------------------------

DR         Peak         RMS     Duration Track
--------------------------------------------------------------------------------
DR16      -5.45 dB   -24.75 dB     14:22 01-Walkin'
DR16      -4.29 dB   -23.60 dB      9:55 02-Bye Bye Blackbird
DR16      -5.10 dB   -24.34 dB     15:36 03-All Of You
DR15      -5.36 dB   -23.89 dB     17:17 04-No Blues
DR13      -5.48 dB   -23.60 dB      2:42 05-Bye Bye (Theme)
DR13     -16.43 dB   -34.67 dB      1:53 06-Love, I've Found You
--------------------------------------------------------------------------------

Number of tracks:  6
Official DR value: DR15

Samplerate:        2822400 Hz / PCM Samplerate: 176400 Hz
Channels:          2
Bits per sample:   1
Bitrate:           5645 kbps
Codec:             DSD64
================================================================================




Create a new paste based on this one


Comments: