[ create a new paste ] login | about

Link: http://codepad.org/HmmPNnYV    [ raw code | fork ]

Plain Text, pasted on Nov 25:
1
2
3
4
5
6
7
8
9
10
11
12
13
14
15
16
17
18
19
20
21
22
23
24
25
26
27
28
29
30
31
32
33
34
35
36
37
38
39
40
41
42
43
44
45
46
47
48
49
50
51
52
53
54
55
56
57
58
59
60
61
62
63
64
65
66
67
68
69
70
71
72
73
74
75
76
77
78
79
80
81
82
83
84
85
86
87
88
89
90
91
92
93
94
95
96
97
98
99
100
101
102
103
104
105
106
107
108
109
110
111
112
113
114
115
116
117
118
119
120
121
122
123
124
125
126
127
128
129
130
131
132
133
134
135
136
137
138
139
140
141
142
143
144
145
146
147
148
149
150
151
152
153
154
155
156
157
158
159
160
161
162
163
164
165
166
167
168
169
170
171
172
173
174
175
176
177
178
179
180
181
182
183
184
185
186
187
188
189
190
191
192
193
194
195
196
197
198
199
200
201
202
203
204
205
206
207
208
209
210
211
212
213
214
215
216
217
218
219
220
221
222
223
224
225
226
227
228
229
230
231
232
233
234
235
236
237
238
239
240
241
242
243
244
245
246
247
248
249
250
251
252
253
254
255
256
257
258
259
260
261
262
263
264
265
266
267
268
269
270
271
272
273
274
275
276
277
278
279
280
281
282
283
284
285
286
287
288
289
290
291
292
293
294
295
296
297
298
299
300
301
302
303
304
305
306
307
308
309
310
311
312
313
314
315
316
317
318
319
320
321
322
323
324
325
326
327
328
329
330
331
332
333
334
335
336
337
338
339
340
341
342
343
344
345
346
347
348
349
350
351
352
353
354
355
356
357
358
359
360
361
362
363
364
365
366
367
368
369
370
371
372
373
374
375
376
377
378
379
380
381
382
383
384
385
386
387
388
389
390
391
392
393
394
395
396
397
398
399
400
401
402
403
404
405
406
407
408
409
410
411
412
413
414
415
416
417
418
419
420
421
422
423
424
425
426
427
428
429
430
431
432
433
434
435
436
437
438
439
440
441
442
443
444
445
446
447
448
449
450
451
452
453
454
455
456
457
458
459
460
461
462
463
464
465
466
467
468
469
470
471
472
473
474
475
476
477
478
479
480
481
482
483
484
485
486
487
488
489
490
491
492
493
494
495
496
497
498
499
500
501
502
503
504
505
506
507
508
509
510
511
512
513
514
515
516
517
518
519
520
521
522
523
524
525
526
527
528
529
530
531
532
533
534
535
536
537
538
539
540
541
542
543
544
545
546
547
548
549
550
551
552
553
554
555
556
557
558
559
560
561
562
563
564
565
566
567
568
569
570
571
572
573
574
575
576
577
578
579
580
581
582
583
584
585
586
587
588
589
590
591
592
593
594
595
596
597
598
599
600
601
602
603
604
605
606
607
608
609
610
611
612
613
614
615
616
617
618
619
620
621
622
623
624
625
626
627
628
629
630
631
632
633
634
635
636
637
638
639
640
641
642
643
644
645
646
647
648
649
650
651
652
653
654
655
656
657
658
659
660
661
662
663
664
665
666
667
668
669
670
671
672
673
674
675
676
677
678
679
680
681
682
683
684
685
686
687
688
689
690
691
692
693
694
695
696
697
698
699
700
701
702
703
704
705
706
707
708
709
710
711
712
713
714
715
716
717
718
719
720
721
722
723
724
725
726
727
728
729
730
731
732
733
734
735
736
737
738
739
740
741
742
743
744
745
746
747
748
749
750
751
752
753
754
755
756
757
758
759
760
761
762
763
764
765
766
767
768
769
770
771
772
773
774
775
776
777
778
779
780
781
782
783
784
785
786
787
788
789
790
791
792
793
794
795
796
797
798
799
800
801
802
803
804
805
806
807
808
809
810
811
812
813
814
815
816
817
818
819
820
821
822
823
824
825
826
827
828
829
830
831
832
833
834
835
Disc Title:     FRAGILE
Disc Size:      38 068 264 665 bytes
Protection:     AACS
BD-Java:        Yes
BDInfo:         0.5.8

Notes:          

BDINFO HOME:
  Cinema Squid
    http://www.cinemasquid.com/blu-ray/tools/bdinfo

INCLUDES FORUMS REPORT FOR:
  AVS Forum Blu-ray Audio and Video Specifications Thread
    http://www.avsforum.com/avs-vb/showthread.php?t=1155731


********************
PLAYLIST: 00009.MPLS
********************

<--- BEGIN FORUMS PASTE --->
[code]
                                                                                                                Total   Video                                             
Title                                                           Codec   Length  Movie Size      Disc Size       Bitrate Bitrate Main Audio Track                          Secondary Audio Track
-----                                                           ------  ------- --------------  --------------  ------- ------- ------------------                        ---------------------
00009.MPLS                                                      AVC     0:51:55 11 993 054 592  38 068 264 665  30,79   3,00    LPCM 2.0 4608Kbps (96kHz/24-bit)          DTS-HD Master 5.1 7365Kbps (96kHz/24-bit)
[/code]

[code]

DISC INFO:

Disc Title:     FRAGILE
Disc Size:      38 068 264 665 bytes
Protection:     AACS
BD-Java:        Yes
BDInfo:         0.5.8

PLAYLIST REPORT:

Name:                   00009.MPLS
Length:                 0:51:55.987 (h:m:s.ms)
Size:                   11 993 054 592 bytes
Total Bitrate:          30,79 Mbps

VIDEO:

Codec                   Bitrate             Description     
-----                   -------             -----------     
MPEG-4 AVC Video        2999 kbps           1080p / 23,976 fps / 16:9 / High Profile 4.1

AUDIO:

Codec                           Language        Bitrate         Description     
-----                           --------        -------         -----------     
LPCM Audio                      English         4608 kbps       2.0 / 96 kHz / 4608 kbps / 24-bit
DTS-HD Master Audio             English         7365 kbps       5.1 / 96 kHz / 7365 kbps / 24-bit (DTS Core: 5.1 / 48 kHz / 1509 kbps / 24-bit)
LPCM Audio                      English         13824 kbps      5.1 / 96 kHz / 13824 kbps / 24-bit

FILES:

Name            Time In         Length          Size            Total Bitrate   
----            -------         ------          ----            -------------   
00009.M2TS      0:00:00.000     0:51:55.987     11 993 054 592  30 791          

CHAPTERS:

Number          Time In         Length          Avg Video Rate  Max 1-Sec Rate  Max 1-Sec Time  Max 5-Sec Rate  Max 5-Sec Time  Max 10Sec Rate  Max 10Sec Time  Avg Frame Size  Max Frame Size  Max Frame Time  
------          -------         ------          --------------  --------------  --------------  --------------  --------------  --------------  --------------  --------------  --------------  --------------  
1               0:00:00.000     0:08:37.183     2 956 kbps      6 759 kbps      00:00:01.042    4 015 kbps      00:00:01.042    3 652 kbps      00:00:01.042    15 412 bytes    414 475 bytes   00:00:04.045    
2               0:08:37.183     0:01:42.811     2 974 kbps      5 678 kbps      00:10:18.993    3 513 kbps      00:10:14.989    3 242 kbps      00:10:09.984    15 503 bytes    368 514 bytes   00:09:56.220    
3               0:10:19.994     0:01:30.381     2 990 kbps      5 197 kbps      00:11:49.375    3 422 kbps      00:11:45.371    3 200 kbps      00:11:40.366    15 590 bytes    369 295 bytes   00:10:59.992    
4               0:11:50.376     0:08:08.738     2 993 kbps      5 160 kbps      00:19:58.113    3 432 kbps      00:19:54.109    3 215 kbps      00:19:49.104    15 602 bytes    371 839 bytes   00:19:59.072    
5               0:19:59.114     0:00:37.996     3 000 kbps      5 920 kbps      00:20:36.068    3 584 kbps      00:20:32.064    3 292 kbps      00:20:27.059    15 642 bytes    371 849 bytes   00:20:15.088    
6               0:20:37.110     0:03:31.085     3 006 kbps      5 876 kbps      00:24:07.195    3 583 kbps      00:24:03.191    3 296 kbps      00:23:58.186    15 672 bytes    373 105 bytes   00:23:01.213    
7               0:24:08.196     0:02:41.744     3 010 kbps      5 633 kbps      00:26:48.940    3 533 kbps      00:26:44.936    3 270 kbps      00:26:39.931    15 694 bytes    372 907 bytes   00:26:05.272    
8               0:26:49.941     0:03:02.891     3 011 kbps      5 759 kbps      00:29:51.831    3 561 kbps      00:29:47.827    3 287 kbps      00:29:42.822    15 701 bytes    373 414 bytes   00:29:52.791    
9               0:29:52.832     0:11:29.855     3 018 kbps      4 981 kbps      00:41:21.687    3 408 kbps      00:41:17.683    3 211 kbps      00:41:12.678    15 732 bytes    374 300 bytes   00:41:22.646    
10              0:41:22.688     0:10:33.299     3 017 kbps      3 177 kbps      00:51:52.067    3 139 kbps      00:51:49.231    3 117 kbps      00:51:44.226    15 730 bytes    394 027 bytes   00:51:52.275    

STREAM DIAGNOSTICS:

File            PID             Type            Codec           Language                Seconds                 Bitrate                 Bytes           Packets         
----            ---             ----            -----           --------                --------------          --------------          -------------   -----           
00009.M2TS      4113 (0x1011)   0x1B            AVC                                     3115,863                2 999                   1 168 226 477   6 382 418       
00009.M2TS      4352 (0x1100)   0x80            LPCM            eng (English)           3115,863                4 616                   1 798 021 148   9 975 152       
00009.M2TS      4353 (0x1101)   0x86            DTS-HD MA       eng (English)           3115,863                7 365                   2 868 628 968   16 076 349      
00009.M2TS      4354 (0x1102)   0x80            LPCM            eng (English)           3115,863                13 836                  5 389 075 868   29 925 456      

[/code]
<---- END FORUMS PASTE ---->

QUICK SUMMARY:

Disc Title: FRAGILE
Disc Size: 38 068 264 665 bytes
Protection: AACS
BD-Java: Yes
Playlist: 00009.MPLS
Size: 11 993 054 592 bytes
Length: 0:51:55.987
Total Bitrate: 30,79 Mbps
Video: MPEG-4 AVC Video / 2999 kbps / 1080p / 23,976 fps / 16:9 / High Profile 4.1
Audio: English / LPCM Audio / 2.0 / 96 kHz / 4608 kbps / 24-bit
Audio: English / DTS-HD Master Audio / 5.1 / 96 kHz / 7365 kbps / 24-bit (DTS Core: 5.1 / 48 kHz / 1509 kbps / 24-bit)
Audio: English / LPCM Audio / 5.1 / 96 kHz / 13824 kbps / 24-bit


********************
PLAYLIST: 00008.MPLS
********************

<--- BEGIN FORUMS PASTE --->
[code]
                                                                                                                Total   Video                                             
Title                                                           Codec   Length  Movie Size      Disc Size       Bitrate Bitrate Main Audio Track                          Secondary Audio Track
-----                                                           ------  ------- --------------  --------------  ------- ------- ------------------                        ---------------------
00008.MPLS                                                      AVC     0:47:44 2 904 997 248   38 068 264 665  8,11    3,00    LPCM 2.0 4608Kbps (96kHz/24-bit)          
[/code]

[code]

DISC INFO:

Disc Title:     FRAGILE
Disc Size:      38 068 264 665 bytes
Protection:     AACS
BD-Java:        Yes
BDInfo:         0.5.8

PLAYLIST REPORT:

Name:                   00008.MPLS
Length:                 0:47:44.069 (h:m:s.ms)
Size:                   2 904 997 248 bytes
Total Bitrate:          8,11 Mbps

VIDEO:

Codec                   Bitrate             Description     
-----                   -------             -----------     
MPEG-4 AVC Video        2998 kbps           1080p / 23,976 fps / 16:9 / High Profile 4.1

AUDIO:

Codec                           Language        Bitrate         Description     
-----                           --------        -------         -----------     
LPCM Audio                      English         4608 kbps       2.0 / 96 kHz / 4608 kbps / 24-bit

FILES:

Name            Time In         Length          Size            Total Bitrate   
----            -------         ------          ----            -------------   
00008.M2TS      0:00:00.000     0:47:44.069     2 904 997 248   8 114           

CHAPTERS:

Number          Time In         Length          Avg Video Rate  Max 1-Sec Rate  Max 1-Sec Time  Max 5-Sec Rate  Max 5-Sec Time  Max 10Sec Rate  Max 10Sec Time  Avg Frame Size  Max Frame Size  Max Frame Time  
------          -------         ------          --------------  --------------  --------------  --------------  --------------  --------------  --------------  --------------  --------------  --------------  
1               0:00:00.000     0:08:36.557     2 835 kbps      9 643 kbps      00:00:00.959    4 589 kbps      00:00:00.959    3 939 kbps      00:00:00.959    14 780 bytes    411 196 bytes   00:00:01.960    
2               0:08:36.557     0:01:43.436     2 871 kbps      5 287 kbps      00:10:18.993    3 358 kbps      00:10:14.989    3 115 kbps      00:10:09.984    14 967 bytes    355 061 bytes   00:10:18.617    
3               0:10:19.994     0:01:39.933     2 902 kbps      5 717 kbps      00:11:58.926    3 479 kbps      00:11:54.922    3 199 kbps      00:11:49.917    15 132 bytes    360 907 bytes   00:11:59.885    
4               0:11:59.927     0:07:41.169     2 971 kbps      5 818 kbps      00:19:40.095    3 566 kbps      00:19:36.091    3 282 kbps      00:19:31.086    15 489 bytes    370 702 bytes   00:19:41.054    
5               0:19:41.096     0:00:38.163     3 049 kbps      5 213 kbps      00:20:18.258    3 447 kbps      00:20:14.254    3 225 kbps      00:20:09.249    15 898 bytes    371 233 bytes   00:20:18.091    
6               0:20:19.259     0:03:31.836     3 031 kbps      5 851 kbps      00:23:50.095    3 603 kbps      00:23:46.091    3 322 kbps      00:23:41.086    15 800 bytes    375 696 bytes   00:23:33.412    
7               0:23:51.096     0:02:39.534     3 060 kbps      5 674 kbps      00:26:29.629    3 581 kbps      00:26:25.625    3 319 kbps      00:26:20.620    15 955 bytes    377 594 bytes   00:26:30.589    
8               0:26:30.630     0:03:00.179     3 066 kbps      3 074 kbps      00:29:29.767    3 072 kbps      00:28:34.754    3 072 kbps      00:28:34.754    15 985 bytes    379 603 bytes   00:29:30.768    
9               0:29:30.810     0:11:25.684     3 076 kbps      3 079 kbps      00:40:55.453    3 077 kbps      00:38:00.319    3 077 kbps      00:38:00.319    16 036 bytes    380 288 bytes   00:40:56.454    
10              0:40:56.495     0:03:30.210     3 079 kbps      3 081 kbps      00:44:25.704    3 080 kbps      00:43:16.594    3 080 kbps      00:43:16.594    16 052 bytes    380 482 bytes   00:44:26.664    
11              0:44:26.705     0:03:17.363     3 093 kbps      4 906 kbps      00:47:42.818    3 583 kbps      00:47:38.814    3 384 kbps      00:47:33.809    16 134 bytes    405 764 bytes   00:47:41.859    

STREAM DIAGNOSTICS:

File            PID             Type            Codec           Language                Seconds                 Bitrate                 Bytes           Packets         
----            ---             ----            -----           --------                --------------          --------------          -------------   -----           
00008.M2TS      4113 (0x1011)   0x1B            AVC                                     2863,986                2 998                   1 073 413 989   5 869 150       
00008.M2TS      4352 (0x1100)   0x80            LPCM            eng (English)           2863,986                4 615                   1 652 009 996   9 165 104       

[/code]
<---- END FORUMS PASTE ---->

QUICK SUMMARY:

Disc Title: FRAGILE
Disc Size: 38 068 264 665 bytes
Protection: AACS
BD-Java: Yes
Playlist: 00008.MPLS
Size: 2 904 997 248 bytes
Length: 0:47:44.069
Total Bitrate: 8,11 Mbps
Video: MPEG-4 AVC Video / 2998 kbps / 1080p / 23,976 fps / 16:9 / High Profile 4.1
Audio: English / LPCM Audio / 2.0 / 96 kHz / 4608 kbps / 24-bit


********************
PLAYLIST: 00004.MPLS
********************

<--- BEGIN FORUMS PASTE --->
[code]
                                                                                                                Total   Video                                             
Title                                                           Codec   Length  Movie Size      Disc Size       Bitrate Bitrate Main Audio Track                          Secondary Audio Track
-----                                                           ------  ------- --------------  --------------  ------- ------- ------------------                        ---------------------
00004.MPLS                                                      AVC     0:41:13 7 973 901 696   38 068 264 665  25,79   3,00    DTS-HD Master 2.0 6128Kbps (192kHz/24-bit)LPCM 2.0 9216Kbps (192kHz/24-bit)
[/code]

[code]

DISC INFO:

Disc Title:     FRAGILE
Disc Size:      38 068 264 665 bytes
Protection:     AACS
BD-Java:        Yes
BDInfo:         0.5.8

PLAYLIST REPORT:

Name:                   00004.MPLS
Length:                 0:41:13.220 (h:m:s.ms)
Size:                   7 973 901 696 bytes
Total Bitrate:          25,79 Mbps

VIDEO:

Codec                   Bitrate             Description     
-----                   -------             -----------     
MPEG-4 AVC Video        2999 kbps           1080p / 23,976 fps / 16:9 / High Profile 4.1

AUDIO:

Codec                           Language        Bitrate         Description     
-----                           --------        -------         -----------     
DTS-HD Master Audio             English         6128 kbps       2.0 / 192 kHz / 6128 kbps / 24-bit (DTS Core: 2.0 / 48 kHz / 1509 kbps / 24-bit)
LPCM Audio                      English         9216 kbps       2.0 / 192 kHz / 9216 kbps / 24-bit
DTS-HD Master Audio             English         5652 kbps       2.0 / 192 kHz / 5652 kbps / 24-bit (DTS Core: 2.0 / 48 kHz / 1509 kbps / 24-bit)

FILES:

Name            Time In         Length          Size            Total Bitrate   
----            -------         ------          ----            -------------   
00004.M2TS      0:00:00.000     0:41:13.220     7 973 901 696   25 792          

CHAPTERS:

Number          Time In         Length          Avg Video Rate  Max 1-Sec Rate  Max 1-Sec Time  Max 5-Sec Rate  Max 5-Sec Time  Max 10Sec Rate  Max 10Sec Time  Avg Frame Size  Max Frame Size  Max Frame Time  
------          -------         ------          --------------  --------------  --------------  --------------  --------------  --------------  --------------  --------------  --------------  --------------  
1               0:00:00.000     0:08:35.515     2 949 kbps      6 991 kbps      00:00:01.000    4 064 kbps      00:00:01.000    3 682 kbps      00:00:01.000    15 373 bytes    414 803 bytes   00:00:03.003    
2               0:08:35.515     0:01:43.102     2 959 kbps      2 964 kbps      00:10:17.617    2 962 kbps      00:09:50.506    2 962 kbps      00:09:50.506    15 427 bytes    367 405 bytes   00:10:18.576    
3               0:10:18.617     0:01:40.100     2 972 kbps      2 975 kbps      00:11:57.675    2 975 kbps      00:11:36.654    2 975 kbps      00:11:36.654    15 493 bytes    368 886 bytes   00:11:58.676    
4               0:11:58.718     0:07:54.473     2 993 kbps      3 007 kbps      00:19:52.191    3 006 kbps      00:19:33.255    3 006 kbps      00:19:33.255    15 602 bytes    372 817 bytes   00:19:53.150    
5               0:19:53.192     0:00:39.038     3 004 kbps      3 007 kbps      00:19:54.151    3 006 kbps      00:19:53.775    3 006 kbps      00:20:14.171    15 662 bytes    372 817 bytes   00:19:55.152    
6               0:20:32.231     0:03:30.501     3 019 kbps      5 266 kbps      00:24:01.731    3 466 kbps      00:23:57.727    3 241 kbps      00:23:52.722    15 738 bytes    373 895 bytes   00:23:17.354    
7               0:24:02.732     0:02:40.869     3 020 kbps      5 768 kbps      00:26:42.600    3 568 kbps      00:26:38.596    3 293 kbps      00:26:33.591    15 743 bytes    374 472 bytes   00:25:22.771    
8               0:26:43.601     0:03:02.182     3 020 kbps      3 024 kbps      00:29:44.741    3 023 kbps      00:26:58.867    3 023 kbps      00:26:58.867    15 746 bytes    375 021 bytes   00:29:45.742    
9               0:29:45.784     0:11:27.436     3 034 kbps      3 228 kbps      00:41:08.424    3 192 kbps      00:41:06.380    3 166 kbps      00:41:01.375    15 819 bytes    400 347 bytes   00:41:09.425    

STREAM DIAGNOSTICS:

File            PID             Type            Codec           Language                Seconds                 Bitrate                 Bytes           Packets         
----            ---             ----            -----           --------                --------------          --------------          -------------   -----           
00004.M2TS      4113 (0x1011)   0x1B            AVC                                     2473,137                2 999                   927 130 273     5 065 459       
00004.M2TS      4352 (0x1100)   0x86            DTS-HD MA       eng (English)           2473,137                6 128                   1 894 458 984   10 675 716      
00004.M2TS      4353 (0x1101)   0x80            LPCM            eng (English)           2473,137                9 223                   2 851 133 780   15 828 640      
00004.M2TS      4354 (0x1102)   0x86            DTS-HD MA       eng (English)           2473,137                5 652                   1 747 417 728   9 878 057       

[/code]
<---- END FORUMS PASTE ---->

QUICK SUMMARY:

Disc Title: FRAGILE
Disc Size: 38 068 264 665 bytes
Protection: AACS
BD-Java: Yes
Playlist: 00004.MPLS
Size: 7 973 901 696 bytes
Length: 0:41:13.220
Total Bitrate: 25,79 Mbps
Video: MPEG-4 AVC Video / 2999 kbps / 1080p / 23,976 fps / 16:9 / High Profile 4.1
Audio: English / DTS-HD Master Audio / 2.0 / 192 kHz / 6128 kbps / 24-bit (DTS Core: 2.0 / 48 kHz / 1509 kbps / 24-bit)
Audio: English / LPCM Audio / 2.0 / 192 kHz / 9216 kbps / 24-bit
Audio: English / DTS-HD Master Audio / 2.0 / 192 kHz / 5652 kbps / 24-bit (DTS Core: 2.0 / 48 kHz / 1509 kbps / 24-bit)


********************
PLAYLIST: 00003.MPLS
********************

<--- BEGIN FORUMS PASTE --->
[code]
                                                                                                                Total   Video                                             
Title                                                           Codec   Length  Movie Size      Disc Size       Bitrate Bitrate Main Audio Track                          Secondary Audio Track
-----                                                           ------  ------- --------------  --------------  ------- ------- ------------------                        ---------------------
00003.MPLS                                                      AVC     0:41:08 9 782 959 488   38 068 264 665  31,71   3,00    LPCM 2.0 4608Kbps (96kHz/24-bit)          DTS-HD Master 5.1 8246Kbps (96kHz/24-bit)
[/code]

[code]

DISC INFO:

Disc Title:     FRAGILE
Disc Size:      38 068 264 665 bytes
Protection:     AACS
BD-Java:        Yes
BDInfo:         0.5.8

PLAYLIST REPORT:

Name:                   00003.MPLS
Length:                 0:41:08.466 (h:m:s.ms)
Size:                   9 782 959 488 bytes
Total Bitrate:          31,71 Mbps

VIDEO:

Codec                   Bitrate             Description     
-----                   -------             -----------     
MPEG-4 AVC Video        2996 kbps           1080p / 23,976 fps / 16:9 / High Profile 4.1

AUDIO:

Codec                           Language        Bitrate         Description     
-----                           --------        -------         -----------     
LPCM Audio                      English         4608 kbps       2.0 / 96 kHz / 4608 kbps / 24-bit
DTS-HD Master Audio             English         8246 kbps       5.1 / 96 kHz / 8246 kbps / 24-bit (DTS Core: 5.1 / 48 kHz / 1509 kbps / 24-bit)
LPCM Audio                      English         13824 kbps      5.1 / 96 kHz / 13824 kbps / 24-bit

FILES:

Name            Time In         Length          Size            Total Bitrate   
----            -------         ------          ----            -------------   
00003.M2TS      0:00:00.000     0:41:08.466     9 782 959 488   31 705          

CHAPTERS:

Number          Time In         Length          Avg Video Rate  Max 1-Sec Rate  Max 1-Sec Time  Max 5-Sec Rate  Max 5-Sec Time  Max 10Sec Rate  Max 10Sec Time  Avg Frame Size  Max Frame Size  Max Frame Time  
------          -------         ------          --------------  --------------  --------------  --------------  --------------  --------------  --------------  --------------  --------------  --------------  
1               0:00:00.000     0:08:33.471     2 863 kbps      10 056 kbps     00:00:00.959    4 655 kbps      00:00:00.959    3 977 kbps      00:00:00.959    14 927 bytes    409 793 bytes   00:00:05.964    
2               0:08:33.471     0:01:40.099     2 879 kbps      2 888 kbps      00:10:08.524    2 888 kbps      00:10:06.522    2 887 kbps      00:10:01.517    15 007 bytes    357 109 bytes   00:10:13.529    
3               0:10:13.571     0:01:42.185     2 912 kbps      4 951 kbps      00:11:54.755    3 311 kbps      00:11:50.751    3 106 kbps      00:11:45.746    15 182 bytes    358 802 bytes   00:11:39.615    
4               0:11:55.756     0:08:02.148     2 963 kbps      5 833 kbps      00:19:56.904    3 565 kbps      00:19:52.900    3 282 kbps      00:19:47.895    15 450 bytes    371 215 bytes   00:19:21.160    
5               0:19:57.905     0:00:35.368     3 047 kbps      5 595 kbps      00:20:32.272    3 522 kbps      00:20:28.268    3 262 kbps      00:20:23.263    15 883 bytes    371 737 bytes   00:20:28.894    
6               0:20:33.273     0:03:31.461     3 030 kbps      5 559 kbps      00:24:03.733    3 542 kbps      00:23:59.729    3 290 kbps      00:23:54.724    15 796 bytes    376 305 bytes   00:23:52.431    
7               0:24:04.734     0:02:39.242     3 049 kbps      5 985 kbps      00:26:41.808    3 646 kbps      00:26:38.805    3 353 kbps      00:26:33.800    15 894 bytes    379 050 bytes   00:26:43.601    
8               0:26:43.977     0:02:58.011     3 074 kbps      3 080 kbps      00:29:40.779    3 078 kbps      00:29:33.772    3 077 kbps      00:29:29.767    16 027 bytes    381 392 bytes   00:29:41.780    
9               0:29:41.988     0:11:26.477     3 104 kbps      6 641 kbps      00:41:06.422    3 977 kbps      00:41:02.418    3 610 kbps      00:40:57.413    16 186 bytes    414 273 bytes   00:41:05.463    

STREAM DIAGNOSTICS:

File            PID             Type            Codec           Language                Seconds                 Bitrate                 Bytes           Packets         
----            ---             ----            -----           --------                --------------          --------------          -------------   -----           
00003.M2TS      4113 (0x1011)   0x1B            AVC                                     2468,383                2 997                   924 597 553     5 059 484       
00003.M2TS      4352 (0x1100)   0x80            LPCM            eng (English)           2468,383                4 615                   1 423 833 684   7 899 216       
00003.M2TS      4353 (0x1101)   0x86            DTS-HD MA       eng (English)           2468,383                8 247                   2 544 507 668   14 213 848      
00003.M2TS      4354 (0x1102)   0x80            LPCM            eng (English)           2468,383                13 831                  4 267 551 444   23 697 648      

[/code]
<---- END FORUMS PASTE ---->

QUICK SUMMARY:

Disc Title: FRAGILE
Disc Size: 38 068 264 665 bytes
Protection: AACS
BD-Java: Yes
Playlist: 00003.MPLS
Size: 9 782 959 488 bytes
Length: 0:41:08.466
Total Bitrate: 31,71 Mbps
Video: MPEG-4 AVC Video / 2996 kbps / 1080p / 23,976 fps / 16:9 / High Profile 4.1
Audio: English / LPCM Audio / 2.0 / 96 kHz / 4608 kbps / 24-bit
Audio: English / DTS-HD Master Audio / 5.1 / 96 kHz / 8246 kbps / 24-bit (DTS Core: 5.1 / 48 kHz / 1509 kbps / 24-bit)
Audio: English / LPCM Audio / 5.1 / 96 kHz / 13824 kbps / 24-bit


********************
PLAYLIST: 00007.MPLS
********************

<--- BEGIN FORUMS PASTE --->
[code]
                                                                                                                Total   Video                                             
Title                                                           Codec   Length  Movie Size      Disc Size       Bitrate Bitrate Main Audio Track                          Secondary Audio Track
-----                                                           ------  ------- --------------  --------------  ------- ------- ------------------                        ---------------------
00007.MPLS                                                      AVC     0:41:08 2 501 004 672   38 068 264 665  8,11    2,99    LPCM 2.0 4608Kbps (96kHz/24-bit)          
[/code]

[code]

DISC INFO:

Disc Title:     FRAGILE
Disc Size:      38 068 264 665 bytes
Protection:     AACS
BD-Java:        Yes
BDInfo:         0.5.8

PLAYLIST REPORT:

Name:                   00007.MPLS
Length:                 0:41:08.466 (h:m:s.ms)
Size:                   2 501 004 672 bytes
Total Bitrate:          8,11 Mbps

VIDEO:

Codec                   Bitrate             Description     
-----                   -------             -----------     
MPEG-4 AVC Video        2987 kbps           1080p / 23,976 fps / 16:9 / High Profile 4.1

AUDIO:

Codec                           Language        Bitrate         Description     
-----                           --------        -------         -----------     
LPCM Audio                      English         4608 kbps       2.0 / 96 kHz / 4608 kbps / 24-bit

FILES:

Name            Time In         Length          Size            Total Bitrate   
----            -------         ------          ----            -------------   
00007.M2TS      0:00:00.000     0:41:08.466     2 501 004 672   8 105           

CHAPTERS:

Number          Time In         Length          Avg Video Rate  Max 1-Sec Rate  Max 1-Sec Time  Max 5-Sec Rate  Max 5-Sec Time  Max 10Sec Rate  Max 10Sec Time  Avg Frame Size  Max Frame Size  Max Frame Time  
------          -------         ------          --------------  --------------  --------------  --------------  --------------  --------------  --------------  --------------  --------------  --------------  
1               0:00:00.000     0:08:33.471     2 715 kbps      10 045 kbps     00:00:00.959    4 609 kbps      00:00:00.959    3 926 kbps      00:00:00.959    14 155 bytes    402 617 bytes   00:00:04.963    
2               0:08:33.471     0:01:40.099     2 658 kbps      2 666 kbps      00:10:10.526    2 665 kbps      00:10:07.481    2 665 kbps      00:10:02.476    13 859 bytes    329 407 bytes   00:10:09.525    
3               0:10:13.571     0:01:42.185     2 674 kbps      4 605 kbps      00:11:54.755    3 068 kbps      00:11:50.751    2 875 kbps      00:11:45.746    13 939 bytes    331 538 bytes   00:11:54.630    
4               0:11:55.756     0:08:02.148     2 864 kbps      5 843 kbps      00:19:56.904    3 573 kbps      00:19:52.900    3 288 kbps      00:19:47.895    14 929 bytes    372 116 bytes   00:19:55.194    
5               0:19:57.905     0:00:35.368     3 057 kbps      5 631 kbps      00:20:32.272    3 540 kbps      00:20:28.268    3 278 kbps      00:20:23.263    15 940 bytes    373 972 bytes   00:20:33.232    
6               0:20:33.273     0:03:31.461     3 072 kbps      5 687 kbps      00:24:03.733    3 618 kbps      00:23:59.729    3 358 kbps      00:23:54.724    16 015 bytes    384 066 bytes   00:24:02.441    
7               0:24:04.734     0:02:39.242     3 128 kbps      5 386 kbps      00:26:42.976    3 588 kbps      00:26:38.972    3 364 kbps      00:26:33.967    16 308 bytes    388 847 bytes   00:26:43.935    
8               0:26:43.977     0:02:58.011     3 167 kbps      6 275 kbps      00:29:40.987    3 804 kbps      00:29:36.983    3 495 kbps      00:29:31.978    16 511 bytes    394 857 bytes   00:29:41.946    
9               0:29:41.988     0:11:26.477     3 264 kbps      4 852 kbps      00:41:07.339    3 796 kbps      00:41:03.335    3 653 kbps      00:40:58.330    17 017 bytes    437 166 bytes   00:41:06.630    

STREAM DIAGNOSTICS:

File            PID             Type            Codec           Language                Seconds                 Bitrate                 Bytes           Packets         
----            ---             ----            -----           --------                --------------          --------------          -------------   -----           
00007.M2TS      4113 (0x1011)   0x1B            AVC                                     2468,341                2 988                   921 774 194     5 044 148       
00007.M2TS      4352 (0x1100)   0x80            LPCM            eng (English)           2468,341                4 615                   1 423 833 684   7 899 216       

[/code]
<---- END FORUMS PASTE ---->

QUICK SUMMARY:

Disc Title: FRAGILE
Disc Size: 38 068 264 665 bytes
Protection: AACS
BD-Java: Yes
Playlist: 00007.MPLS
Size: 2 501 004 672 bytes
Length: 0:41:08.466
Total Bitrate: 8,11 Mbps
Video: MPEG-4 AVC Video / 2987 kbps / 1080p / 23,976 fps / 16:9 / High Profile 4.1
Audio: English / LPCM Audio / 2.0 / 96 kHz / 4608 kbps / 24-bit


********************
PLAYLIST: 00006.MPLS
********************

<--- BEGIN FORUMS PASTE --->
[code]
                                                                                                                Total   Video                                             
Title                                                           Codec   Length  Movie Size      Disc Size       Bitrate Bitrate Main Audio Track                          Secondary Audio Track
-----                                                           ------  ------- --------------  --------------  ------- ------- ------------------                        ---------------------
00006.MPLS                                                      AVC     0:23:32 1 435 291 008   38 068 264 665  8,13    3,01    LPCM 2.0 4608Kbps (96kHz/24-bit)          
[/code]

[code]

DISC INFO:

Disc Title:     FRAGILE
Disc Size:      38 068 264 665 bytes
Protection:     AACS
BD-Java:        Yes
BDInfo:         0.5.8

PLAYLIST REPORT:

Name:                   00006.MPLS
Length:                 0:23:32.285 (h:m:s.ms)
Size:                   1 435 291 008 bytes
Total Bitrate:          8,13 Mbps

VIDEO:

Codec                   Bitrate             Description     
-----                   -------             -----------     
MPEG-4 AVC Video        3014 kbps           1080p / 23,976 fps / 16:9 / High Profile 4.1

AUDIO:

Codec                           Language        Bitrate         Description     
-----                           --------        -------         -----------     
LPCM Audio                      English         4608 kbps       2.0 / 96 kHz / 4608 kbps / 24-bit

FILES:

Name            Time In         Length          Size            Total Bitrate   
----            -------         ------          ----            -------------   
00006.M2TS      0:00:00.000     0:23:32.285     1 435 291 008   8 130           

CHAPTERS:

Number          Time In         Length          Avg Video Rate  Max 1-Sec Rate  Max 1-Sec Time  Max 5-Sec Rate  Max 5-Sec Time  Max 10Sec Rate  Max 10Sec Time  Avg Frame Size  Max Frame Size  Max Frame Time  
------          -------         ------          --------------  --------------  --------------  --------------  --------------  --------------  --------------  --------------  --------------  --------------  
1               0:00:00.000     0:08:36.516     3 203 kbps      12 373 kbps     00:00:00.959    5 026 kbps      00:00:00.959    4 122 kbps      00:00:00.959    16 696 bytes    395 418 bytes   00:00:26.985    
2               0:08:36.516     0:06:22.381     3 027 kbps      3 126 kbps      00:08:36.766    3 125 kbps      00:08:36.766    3 124 kbps      00:08:36.807    15 779 bytes    384 619 bytes   00:08:37.475    
3               0:14:58.898     0:08:33.387     2 815 kbps      3 251 kbps      00:23:30.325    2 923 kbps      00:14:59.857    2 922 kbps      00:14:59.607    14 677 bytes    355 921 bytes   00:15:03.861    

STREAM DIAGNOSTICS:

File            PID             Type            Codec           Language                Seconds                 Bitrate                 Bytes           Packets         
----            ---             ----            -----           --------                --------------          --------------          -------------   -----           
00006.M2TS      4113 (0x1011)   0x1B            AVC                                     1412,202                3 014                   532 070 441     2 908 804       
00006.M2TS      4352 (0x1100)   0x80            LPCM            eng (English)           1412,202                4 615                   814 614 640     4 519 360       

[/code]
<---- END FORUMS PASTE ---->

QUICK SUMMARY:

Disc Title: FRAGILE
Disc Size: 38 068 264 665 bytes
Protection: AACS
BD-Java: Yes
Playlist: 00006.MPLS
Size: 1 435 291 008 bytes
Length: 0:23:32.285
Total Bitrate: 8,13 Mbps
Video: MPEG-4 AVC Video / 3014 kbps / 1080p / 23,976 fps / 16:9 / High Profile 4.1
Audio: English / LPCM Audio / 2.0 / 96 kHz / 4608 kbps / 24-bit


********************
PLAYLIST: 00005.MPLS
********************

<--- BEGIN FORUMS PASTE --->
[code]
                                                                                                                Total   Video                                             
Title                                                           Codec   Length  Movie Size      Disc Size       Bitrate Bitrate Main Audio Track                          Secondary Audio Track
-----                                                           ------  ------- --------------  --------------  ------- ------- ------------------                        ---------------------
00005.MPLS                                                      AVC     0:23:23 1 421 725 056   38 068 264 665  8,10    2,99    LPCM 2.0 4608Kbps (96kHz/24-bit)          
[/code]

[code]

DISC INFO:

Disc Title:     FRAGILE
Disc Size:      38 068 264 665 bytes
Protection:     AACS
BD-Java:        Yes
BDInfo:         0.5.8

PLAYLIST REPORT:

Name:                   00005.MPLS
Length:                 0:23:23.443 (h:m:s.ms)
Size:                   1 421 725 056 bytes
Total Bitrate:          8,10 Mbps

VIDEO:

Codec                   Bitrate             Description     
-----                   -------             -----------     
MPEG-4 AVC Video        2992 kbps           1080p / 23,976 fps / 16:9 / High Profile 4.1

AUDIO:

Codec                           Language        Bitrate         Description     
-----                           --------        -------         -----------     
LPCM Audio                      English         4608 kbps       2.0 / 96 kHz / 4608 kbps / 24-bit

FILES:

Name            Time In         Length          Size            Total Bitrate   
----            -------         ------          ----            -------------   
00005.M2TS      0:00:00.000     0:23:23.443     1 421 725 056   8 104           

CHAPTERS:

Number          Time In         Length          Avg Video Rate  Max 1-Sec Rate  Max 1-Sec Time  Max 5-Sec Rate  Max 5-Sec Time  Max 10Sec Rate  Max 10Sec Time  Avg Frame Size  Max Frame Size  Max Frame Time  
------          -------         ------          --------------  --------------  --------------  --------------  --------------  --------------  --------------  --------------  --------------  --------------  
1               0:00:00.000     0:08:13.326     3 011 kbps      11 216 kbps     00:00:00.959    4 940 kbps      00:00:00.959    4 172 kbps      00:00:00.959    15 696 bytes    421 648 bytes   00:00:13.972    
2               0:08:13.326     0:02:20.306     2 859 kbps      5 140 kbps      00:10:32.632    3 314 kbps      00:10:28.628    3 087 kbps      00:10:23.623    14 907 bytes    348 973 bytes   00:10:31.422    
3               0:10:33.633     0:05:12.311     2 909 kbps      2 977 kbps      00:15:42.983    2 974 kbps      00:15:39.647    2 973 kbps      00:15:34.850    15 168 bytes    365 880 bytes   00:15:43.901    
4               0:15:45.945     0:02:33.153     3 000 kbps      3 035 kbps      00:18:18.055    3 027 kbps      00:18:12.382    3 026 kbps      00:18:07.753    15 639 bytes    373 920 bytes   00:18:19.056    
5               0:18:19.098     0:03:02.182     3 070 kbps      3 112 kbps      00:21:16.233    3 111 kbps      00:21:15.190    3 109 kbps      00:21:09.268    16 006 bytes    383 646 bytes   00:21:17.234    
6               0:21:21.280     0:02:02.163     3 158 kbps      7 285 kbps      00:23:21.316    4 100 kbps      00:23:17.312    3 677 kbps      00:23:12.307    16 476 bytes    410 829 bytes   00:23:20.357    

STREAM DIAGNOSTICS:

File            PID             Type            Codec           Language                Seconds                 Bitrate                 Bytes           Packets         
----            ---             ----            -----           --------                --------------          --------------          -------------   -----           
00005.M2TS      4113 (0x1011)   0x1B            AVC                                     1403,360                2 993                   524 959 436     2 866 663       
00005.M2TS      4352 (0x1100)   0x80            LPCM            eng (English)           1403,360                4 615                   809 527 264     4 491 136       

[/code]
<---- END FORUMS PASTE ---->

QUICK SUMMARY:

Disc Title: FRAGILE
Disc Size: 38 068 264 665 bytes
Protection: AACS
BD-Java: Yes
Playlist: 00005.MPLS
Size: 1 421 725 056 bytes
Length: 0:23:23.443
Total Bitrate: 8,10 Mbps
Video: MPEG-4 AVC Video / 2992 kbps / 1080p / 23,976 fps / 16:9 / High Profile 4.1
Audio: English / LPCM Audio / 2.0 / 96 kHz / 4608 kbps / 24-bit


********************
PLAYLIST: 00001.MPLS
********************

<--- BEGIN FORUMS PASTE --->
[code]
                                                                                                                Total   Video                                             
Title                                                           Codec   Length  Movie Size      Disc Size       Bitrate Bitrate Main Audio Track                          Secondary Audio Track
-----                                                           ------  ------- --------------  --------------  ------- ------- ------------------                        ---------------------
00001.MPLS                                                      AVC     0:00:30 13 071 744      38 068 264 665  3,48    3,27                                              
[/code]

[code]

DISC INFO:

Disc Title:     FRAGILE
Disc Size:      38 068 264 665 bytes
Protection:     AACS
BD-Java:        Yes
BDInfo:         0.5.8

PLAYLIST REPORT:

Name:                   00001.MPLS
Length:                 0:00:30.029 (h:m:s.ms)
Size:                   13 071 744 bytes
Total Bitrate:          3,48 Mbps

VIDEO:

Codec                   Bitrate             Description     
-----                   -------             -----------     
MPEG-4 AVC Video        3267 kbps           1080p / 23,976 fps / 16:9 / High Profile 4.1

FILES:

Name            Time In         Length          Size            Total Bitrate   
----            -------         ------          ----            -------------   
00001.M2TS      0:00:00.000     0:00:30.029     13 071 744      3 477           

CHAPTERS:

Number          Time In         Length          Avg Video Rate  Max 1-Sec Rate  Max 1-Sec Time  Max 5-Sec Rate  Max 5-Sec Time  Max 10Sec Rate  Max 10Sec Time  Avg Frame Size  Max Frame Size  Max Frame Time  
------          -------         ------          --------------  --------------  --------------  --------------  --------------  --------------  --------------  --------------  --------------  --------------  
1               0:00:00.000     0:00:05.004     4 903 kbps      15 574 kbps     00:00:00.959    0 kbps          00:00:00.000    0 kbps          00:00:00.000    25 353 bytes    591 919 bytes   00:00:01.960    
2               0:00:05.004     0:00:24.024     3 066 kbps      3 175 kbps      00:00:26.026    3 163 kbps      00:00:22.022    3 151 kbps      00:00:19.019    15 987 bytes    393 841 bytes   00:00:26.985    
3               0:00:29.028     0:00:01.000     24 kbps         0 kbps          00:00:00.000    0 kbps          00:00:00.000    0 kbps          00:00:00.000    146 bytes       171 bytes       00:00:29.696    

STREAM DIAGNOSTICS:

File            PID             Type            Codec           Language                Seconds                 Bitrate                 Bytes           Packets         
----            ---             ----            -----           --------                --------------          --------------          -------------   -----           
00001.M2TS      4113 (0x1011)   0x1B            AVC                                     29,905                  3 285                   12 280 800      67 064          

[/code]
<---- END FORUMS PASTE ---->

QUICK SUMMARY:

Disc Title: FRAGILE
Disc Size: 38 068 264 665 bytes
Protection: AACS
BD-Java: Yes
Playlist: 00001.MPLS
Size: 13 071 744 bytes
Length: 0:00:30.029
Total Bitrate: 3,48 Mbps
Video: MPEG-4 AVC Video / 3267 kbps / 1080p / 23,976 fps / 16:9 / High Profile 4.1


********************
PLAYLIST: 00002.MPLS
********************

<--- BEGIN FORUMS PASTE --->
[code]
                                                                                                                Total   Video                                             
Title                                                           Codec   Length  Movie Size      Disc Size       Bitrate Bitrate Main Audio Track                          Secondary Audio Track
-----                                                           ------  ------- --------------  --------------  ------- ------- ------------------                        ---------------------
00002.MPLS                                                      AVC     0:00:30 13 268 352      38 068 264 665  3,53    3,32                                              
[/code]

[code]

DISC INFO:

Disc Title:     FRAGILE
Disc Size:      38 068 264 665 bytes
Protection:     AACS
BD-Java:        Yes
BDInfo:         0.5.8

PLAYLIST REPORT:

Name:                   00002.MPLS
Length:                 0:00:30.029 (h:m:s.ms)
Size:                   13 268 352 bytes
Total Bitrate:          3,53 Mbps

VIDEO:

Codec                   Bitrate             Description     
-----                   -------             -----------     
MPEG-4 AVC Video        3320 kbps           1080p / 23,976 fps / 16:9 / High Profile 4.1

FILES:

Name            Time In         Length          Size            Total Bitrate   
----            -------         ------          ----            -------------   
00002.M2TS      0:00:00.000     0:00:30.029     13 268 352      3 530           

CHAPTERS:

Number          Time In         Length          Avg Video Rate  Max 1-Sec Rate  Max 1-Sec Time  Max 5-Sec Rate  Max 5-Sec Time  Max 10Sec Rate  Max 10Sec Time  Avg Frame Size  Max Frame Size  Max Frame Time  
------          -------         ------          --------------  --------------  --------------  --------------  --------------  --------------  --------------  --------------  --------------  --------------  
1               0:00:00.000     0:00:05.004     5 383 kbps      14 528 kbps     00:00:01.000    0 kbps          00:00:00.000    0 kbps          00:00:00.000    27 832 bytes    762 331 bytes   00:00:02.001    
2               0:00:05.004     0:00:24.024     3 033 kbps      3 165 kbps      00:00:25.984    3 155 kbps      00:00:22.022    3 143 kbps      00:00:18.143    15 812 bytes    392 111 bytes   00:00:26.985    
3               0:00:29.028     0:00:01.000     25 kbps         0 kbps          00:00:00.000    0 kbps          00:00:00.000    0 kbps          00:00:00.000    147 bytes       183 bytes       00:00:29.195    

STREAM DIAGNOSTICS:

File            PID             Type            Codec           Language                Seconds                 Bitrate                 Bytes           Packets         
----            ---             ----            -----           --------                --------------          --------------          -------------   -----           
00002.M2TS      4113 (0x1011)   0x1B            AVC                                     29,905                  3 339                   12 480 302      68 095          

[/code]
<---- END FORUMS PASTE ---->

QUICK SUMMARY:

Disc Title: FRAGILE
Disc Size: 38 068 264 665 bytes
Protection: AACS
BD-Java: Yes
Playlist: 00002.MPLS
Size: 13 268 352 bytes
Length: 0:00:30.029
Total Bitrate: 3,53 Mbps
Video: MPEG-4 AVC Video / 3320 kbps / 1080p / 23,976 fps / 16:9 / High Profile 4.1


********************
PLAYLIST: 00000.MPLS
********************

<--- BEGIN FORUMS PASTE --->
[code]
                                                                                                                Total   Video                                             
Title                                                           Codec   Length  Movie Size      Disc Size       Bitrate Bitrate Main Audio Track                          Secondary Audio Track
-----                                                           ------  ------- --------------  --------------  ------- ------- ------------------                        ---------------------
00000.MPLS                                                      AVC     0:00:24 17 833 344      38 068 264 665  5,94    5,61                                              
[/code]

[code]

DISC INFO:

Disc Title:     FRAGILE
Disc Size:      38 068 264 665 bytes
Protection:     AACS
BD-Java:        Yes
BDInfo:         0.5.8

PLAYLIST REPORT:

Name:                   00000.MPLS
Length:                 0:00:24.024 (h:m:s.ms)
Size:                   17 833 344 bytes
Total Bitrate:          5,94 Mbps

VIDEO:

Codec                   Bitrate             Description     
-----                   -------             -----------     
MPEG-4 AVC Video        5610 kbps           1080p / 23,976 fps / 16:9 / High Profile 4.1

FILES:

Name            Time In         Length          Size            Total Bitrate   
----            -------         ------          ----            -------------   
00000.M2TS      0:00:00.000     0:00:24.024     17 833 344      5 928           

CHAPTERS:

Number          Time In         Length          Avg Video Rate  Max 1-Sec Rate  Max 1-Sec Time  Max 5-Sec Rate  Max 5-Sec Time  Max 10Sec Rate  Max 10Sec Time  Avg Frame Size  Max Frame Size  Max Frame Time  
------          -------         ------          --------------  --------------  --------------  --------------  --------------  --------------  --------------  --------------  --------------  --------------  
1               0:00:00.000     0:00:24.024     5 620 kbps      9 573 kbps      00:00:20.562    8 441 kbps      00:00:17.183    7 178 kbps      00:00:12.178    29 402 bytes    193 741 bytes   00:00:08.967    

STREAM DIAGNOSTICS:

File            PID             Type            Codec           Language                Seconds                 Bitrate                 Bytes           Packets         
----            ---             ----            -----           --------                --------------          --------------          -------------   -----           
00000.M2TS      4113 (0x1011)   0x1B            AVC                                     23,899                  5 650                   16 878 383      92 061          

[/code]
<---- END FORUMS PASTE ---->

QUICK SUMMARY:

Disc Title: FRAGILE
Disc Size: 38 068 264 665 bytes
Protection: AACS
BD-Java: Yes
Playlist: 00000.MPLS
Size: 17 833 344 bytes
Length: 0:00:24.024
Total Bitrate: 5,94 Mbps
Video: MPEG-4 AVC Video / 5610 kbps / 1080p / 23,976 fps / 16:9 / High Profile 4.1




Create a new paste based on this one


Comments: