[ create a new paste ] login | about

Link: http://codepad.org/Hn9owMzq    [ raw code | fork ]

Plain Text, pasted on Jul 14:
[CUETools log; Date: 7/14/2018 10:11:29 AM; Version: 2.1.5]
[CTDB TOCID: St6NbfqOgf1W04JMavSKCudakJw-] found.
Track | CTDB Status
  1   | (13/13) Accurately ripped
  2   | (13/13) Accurately ripped
  3   | (13/13) Accurately ripped
  4   | (13/13) Accurately ripped
  5   | (13/13) Accurately ripped
  6   | (13/13) Accurately ripped
  7   | (13/13) Accurately ripped
  8   | (13/13) Accurately ripped
  9   | (13/13) Accurately ripped
 10   | (13/13) Accurately ripped
 11   | (13/13) Accurately ripped
 12   | (13/13) Accurately ripped
 13   | (13/13) Accurately ripped
 14   | (13/13) Accurately ripped
 15   | (13/13) Accurately ripped
 16   | (13/13) Accurately ripped
 17   | (13/13) Accurately ripped
 18   | (13/13) Accurately ripped
 19   | (13/13) Accurately ripped
 20   | (13/13) Accurately ripped
 21   | (13/13) Accurately ripped
 22   | (13/13) Accurately ripped
 23   | (13/13) Accurately ripped
[AccurateRip ID: 003e3e6b-04146794-46122a17] found.
Track   [  CRC   |   V2   ] Status
 01     [af39d724|72b91b0d] (00+12/12) Accurately ripped
 02     [67047727|0235fec3] (00+12/12) Accurately ripped
 03     [7c6858eb|813a7b87] (00+12/12) Accurately ripped
 04     [66bd6f54|cdb0f05d] (00+12/12) Accurately ripped
 05     [a855058a|f19509c3] (00+12/12) Accurately ripped
 06     [5726ba4e|d41ca099] (00+12/12) Accurately ripped
 07     [8886aa12|76eb24ef] (00+12/12) Accurately ripped
 08     [dfaff181|4c201f70] (00+12/12) Accurately ripped
 09     [b7c02a7c|90b94623] (00+12/12) Accurately ripped
 10     [eff1d7fe|6c56c876] (00+12/12) Accurately ripped
 11     [9e00c95f|a15c964f] (00+12/12) Accurately ripped
 12     [ecc19afd|e83030ca] (00+12/12) Accurately ripped
 13     [e85770e8|95ae5ccd] (00+12/12) Accurately ripped
 14     [54c988f2|cf952ad8] (00+12/12) Accurately ripped
 15     [3ac737ca|d8a60bae] (00+12/12) Accurately ripped
 16     [da935d68|59560e6c] (00+12/12) Accurately ripped
 17     [eb7415b7|1634d3fb] (00+12/12) Accurately ripped
 18     [ac5ad370|1dc8882e] (00+12/12) Accurately ripped
 19     [8ad1e3ed|d4cb33eb] (00+12/12) Accurately ripped
 20     [7f9e6a04|ef6923f8] (00+12/12) Accurately ripped
 21     [11e41770|59ab3da9] (00+12/12) Accurately ripped
 22     [e9e6e2f9|fdcbac14] (00+12/12) Accurately ripped
 23     [349d0b80|a6227abf] (00+12/12) Accurately ripped

Track Peak [ CRC32  ] [W/O NULL] [  LOG   ]
 --   99.4 [A8460AC7] [3335C2F2]   CRC32   
 01   99.4 [B9758F99] [B074482C]           
 02   99.4 [278A79BE] [7E9D9C00]           
 03   99.4 [D9FAE8FD] [B95E848E]           
 04   99.4 [11B35C72] [F7541000]           
 05   99.2 [4B953D4E] [CD8127EA]           
 06   99.4 [5B1C5FCE] [0F94D6D1]           
 07   99.4 [EEB4E0AB] [C133436C]           
 08   99.3 [D2D13FA3] [7A224094]           
 09   99.4 [65D7FF12] [C71B2556]           
 10   99.4 [4627D2A2] [733A8820]           
 11   98.7 [9F5BB3B8] [69482354]           
 12   99.4 [C69FA59D] [70DDD809]           
 13   93.7 [A488ACAB] [78A73C03]           
 14   99.4 [745A5080] [54A23B92]           
 15   99.4 [E6B624EB] [18E384D7]           
 16   99.4 [A5E819CA] [ABE54C53]           
 17   99.4 [0174D20E] [6B5D93B8]           
 18   99.4 [4BBE2AE2] [20EEBE41]           
 19   99.4 [9754D2C8] [27993627]           
 20   87.2 [F90BAE4D] [C4AAD117]           
 21   99.4 [89949191] [66328E2F]           
 22   99.2 [205086DE] [D2AD1E35]           
 23   99.4 [CD682D43] [891C7A70]           



Create a new paste based on this one


Comments: