[ create a new paste ] login | about

Link: http://codepad.org/HpTgG5xb    [ raw code | fork ]

Plain Text, pasted on Jul 27:
Exact Audio Copy V1.3 from 2. September 2016

EAC extraction logfile from 17. July 2020, 8:13

T. Rex / Electric Warrior MFSL

Used drive  : PLEXTOR BD-R  PX-B950SA   Adapter: 1  ID: 1

Read mode               : Secure
Utilize accurate stream : Yes
Defeat audio cache      : Yes
Make use of C2 pointers : No

Read offset correction                      : 6
Overread into Lead-In and Lead-Out          : No
Fill up missing offset samples with silence : Yes
Delete leading and trailing silent blocks   : No
Null samples used in CRC calculations       : Yes
Used interface                              : Native Win32 interface for Win NT & 2000

Used output format : Internal WAV Routines
Sample format      : 44.100 Hz; 16 Bit; Stereo


TOC of the extracted CD

     Track |   Start  |  Length  | Start sector | End sector 
    ---------------------------------------------------------
        1  |  0:00.00 |  3:41.40 |         0    |    16614   
        2  |  3:41.40 |  4:29.62 |     16615    |    36851   
        3  |  8:11.27 |  4:12.08 |     36852    |    55759   
        4  | 12:23.35 |  3:48.70 |     55760    |    72929   
        5  | 16:12.30 |  3:03.32 |     72930    |    86686   
        6  | 19:15.62 |  4:27.33 |     86687    |   106744   
        7  | 23:43.20 |  3:12.65 |    106745    |   121209   
        8  | 26:56.10 |  2:32.16 |    121210    |   132625   
        9  | 29:28.26 |  4:00.14 |    132626    |   150639   
       10  | 33:28.40 |  2:24.44 |    150640    |   161483   
       11  | 35:53.09 |  3:42.27 |    161484    |   178160   


Range status and errors

Selected range

     Filename C:\T. Rex\1971 Electric Warrior (Hybrid SACD MFSL 2020)\T. Rex - Electric Warrior MFSL.wav

     Peak level 96.4 %
     Extraction speed 3.3 X
     Range quality 99.9 %
     Test CRC 92B6DBF5
     Copy CRC 92B6DBF5
     Copy OK

No errors occurred

 
AccurateRip summary
 
Track  1  accurately ripped (confidence 3)  [35B6090D]  (AR v2)
Track  2  accurately ripped (confidence 3)  [41926504]  (AR v2)
Track  3  accurately ripped (confidence 4)  [A81215C5]  (AR v2)
Track  4  accurately ripped (confidence 3)  [541D92A1]  (AR v2)
Track  5  accurately ripped (confidence 3)  [91011B59]  (AR v2)
Track  6  accurately ripped (confidence 4)  [A8F590A1]  (AR v2)
Track  7  accurately ripped (confidence 4)  [F4AEF811]  (AR v2)
Track  8  accurately ripped (confidence 3)  [B19767F6]  (AR v2)
Track  9  accurately ripped (confidence 3)  [873DF789]  (AR v2)
Track 10  accurately ripped (confidence 3)  [6CBF476B]  (AR v2)
Track 11  accurately ripped (confidence 3)  [A7E10116]  (AR v2)
 
All tracks accurately ripped

End of status report

---- CUETools DB Plugin V2.1.6

[CTDB TOCID: oLXjus9m_dY5BWzh4R8C.WMpETQ-] found
Submit result: oLXjus9m_dY5BWzh4R8C.WMpETQ- has been confirmed
Track | CTDB Status
  1   | (13/13) Accurately ripped
  2   | (13/13) Accurately ripped
  3   | (13/13) Accurately ripped
  4   | (13/13) Accurately ripped
  5   | (13/13) Accurately ripped
  6   | (13/13) Accurately ripped
  7   | (13/13) Accurately ripped
  8   | (13/13) Accurately ripped
  9   | (13/13) Accurately ripped
 10   | (13/13) Accurately ripped
 11   | (13/13) Accurately ripped


==== Log checksum A8019E6DD5F7D3FF08EBF4248CC8C7308FA06AFF478A71C82F186CD58B70E2C4 ====



Create a new paste based on this one


Comments: