[ create a new paste ] login | about

Link: http://codepad.org/Hr1YhAgF    [ raw code | fork ]

Plain Text, pasted on Feb 18:
foobar2000 1.5 / Dynamic Range Meter 1.1.1
log date: 2020-02-18 20:22:19

--------------------------------------------------------------------------------
Analyzed: Queen / A Night At The Opera 
--------------------------------------------------------------------------------

DR         Peak         RMS     Duration Track
--------------------------------------------------------------------------------
DR10      -0.05 dB   -13.20 dB      3:44 01-Death On Two Legs (Dedicated To....)
DR11      -1.41 dB   -16.83 dB      1:08 02-Lazing On A Sunday Afternoon
DR11      -1.08 dB   -14.71 dB      3:06 03-I'm In Love With My Car
DR11      -0.45 dB   -13.44 dB      2:51 04-You're My Best Friend
DR10      -0.95 dB   -13.67 dB      3:32 05-'39
DR11      -0.05 dB   -14.46 dB      4:02 06-Sweet Lady
DR11      -1.16 dB   -14.37 dB      2:14 07-Seaside Rendezvous
DR11      -0.05 dB   -15.83 dB      8:23 08-The Prophet's Song
DR10      -4.33 dB   -17.57 dB      3:36 09-Love Of My Life
DR11      -0.83 dB   -15.15 dB      3:25 10-Good Company
DR11      -0.06 dB   -15.49 dB      5:57 11-Bohemian Rhapsody
DR12      -4.62 dB   -20.77 dB      1:12 12-God Save The Queen
--------------------------------------------------------------------------------

Number of tracks:  12
Official DR value: DR11

Samplerate:        96000 Hz
Channels:          2
Bits per sample:   24
Bitrate:           2730 kbps
Codec:             FLAC
================================================================================




Create a new paste based on this one


Comments: