[ create a new paste ] login | about

Link: http://codepad.org/HrvUYNcw    [ raw code | fork ]

Plain Text, pasted on Nov 2:
Exact Audio Copy V1.1 from 23. June 2015

EAC extraction logfile from 25. October 2016, 19:47

Lou Reed / Coney Island Baby

Used drive  : PLEXTOR BD-R  PX-B950SA   Adapter: 1  ID: 1

Read mode               : Secure
Utilize accurate stream : Yes
Defeat audio cache      : Yes
Make use of C2 pointers : No

Read offset correction                      : 6
Overread into Lead-In and Lead-Out          : No
Fill up missing offset samples with silence : Yes
Delete leading and trailing silent blocks   : No
Null samples used in CRC calculations       : Yes
Used interface                              : Native Win32 interface for Win NT & 2000

Used output format : Internal WAV Routines
Sample format      : 44.100 Hz; 16 Bit; Stereo


TOC of the extracted CD

     Track |   Start  |  Length  | Start sector | End sector 
    ---------------------------------------------------------
        1  |  0:00.00 |  2:54.43 |         0    |    13092   
        2  |  2:54.43 |  2:39.07 |     13093    |    25024   
        3  |  5:33.50 |  5:59.68 |     25025    |    52017   
        4  | 11:33.43 |  6:01.54 |     52018    |    79146   
        5  | 17:35.22 |  3:45.12 |     79147    |    96033   
        6  | 21:20.34 |  3:45.50 |     96034    |   112958   
        7  | 25:06.09 |  3:47.53 |    112959    |   130036   
        8  | 28:53.62 |  6:35.17 |    130037    |   159678   


Range status and errors

Selected range

     Filename C:\Lou Reed\2016 RCA & Arista Album Collection (17CD Box Set Sony Music)\1975 Coney Island Baby\Lou Reed - Coney Island Baby.wav

     Peak level 100.0 %
     Extraction speed 6.5 X
     Range quality 100.0 %
     Test CRC E2CA3D33
     Copy CRC E2CA3D33
     Copy OK

No errors occurred

 
AccurateRip summary
 
Track  1  not present in database
Track  2  not present in database
Track  3  not present in database
Track  4  not present in database
Track  5  not present in database
Track  6  not present in database
Track  7  not present in database
Track  8  not present in database
 
None of the tracks are present in the AccurateRip database

End of status report

---- CUETools DB Plugin V2.1.6

[CTDB TOCID: AdzedwRcb2klRnU4oUmRjhxNm.Y-] found
Submit result: AdzedwRcb2klRnU4oUmRjhxNm.Y- has been confirmed
Track | CTDB Status
  1   | (3/3) Accurately ripped
  2   | (3/3) Accurately ripped
  3   | (3/3) Accurately ripped
  4   | (3/3) Accurately ripped
  5   | (3/3) Accurately ripped
  6   | (3/3) Accurately ripped
  7   | (3/3) Accurately ripped
  8   | (3/3) Accurately ripped


==== Log checksum 59107FC3A2026D6F4A0E248F66A184F87FD3169F15001CA6AF34394A625067AC ====



Create a new paste based on this one


Comments: