[ create a new paste ] login | about

Link: http://codepad.org/HuB4ScK5    [ raw code | fork ]

Plain Text, pasted on Dec 18:
foobar2000 1.3.16 / Dynamic Range Meter 1.1.1
log date: 2017-12-18 07:41:36

--------------------------------------------------------------------------------
Analyzed: Asia / Alpha
--------------------------------------------------------------------------------

DR         Peak         RMS     Duration Track
--------------------------------------------------------------------------------
DR11      -7.04 dB   -20.35 dB      3:38 01-Don't Cry
DR11      -7.85 dB   -21.40 dB      3:12 02-The Smile Has Left Your Eyes
DR11      -8.52 dB   -21.24 dB      3:46 03-Never In A Million Years
DR11      -7.93 dB   -21.76 dB      4:48 04-My Own Time (I'll Do What I Want)
DR12      -8.28 dB   -22.28 dB      5:01 05-The Heat Goes On
DR11      -6.68 dB   -20.38 dB      3:14 06-Eye To Eye
DR11      -7.32 dB   -22.13 dB      4:40 07-The Last To Know
DR12      -8.03 dB   -22.58 dB      3:51 08-True Colors
DR11      -7.52 dB   -21.32 dB      3:48 09-Midnight Sun
DR11      -7.77 dB   -22.82 dB      6:27 10-Open Your Eyes
--------------------------------------------------------------------------------

Number of tracks:  10
Official DR value: DR11

Samplerate:        2822400 Hz / PCM Samplerate: 88200 Hz
Channels:          2
Bits per sample:   1
Bitrate:           5645 kbps
Codec:             DSD64
================================================================================




Create a new paste based on this one


Comments: