[ create a new paste ] login | about

Link: http://codepad.org/Hw1zyBpM    [ raw code | fork ]

Plain Text, pasted on Jan 12:
General
Complete name                  : VIDEO_TS\VTS_02_1.VOB
Format                         : MPEG-PS
File size                      : 1 024 MiB
Duration                       : 22mn 16s
Overall bit rate mode          : Variable
Overall bit rate               : 6 427 Kbps

Video
ID                             : 224 (0xE0)
Format                         : MPEG Video
Format version                 : Version 2
Format profile                 : Main@Main
Format settings, BVOP          : Yes
Format settings, Matrix        : Custom
Format settings, GOP           : M=3, N=15
Format settings, picture struc : Frame
Duration                       : 22mn 16s
Bit rate mode                  : Variable
Bit rate                       : 4 316 Kbps
Maximum bit rate               : 9 800 Kbps
Width                          : 720 pixels
Height                         : 480 pixels
Display aspect ratio           : 16:9
Frame rate                     : 29.970 (30000/1001) fps
Standard                       : NTSC
Color space                    : YUV
Chroma subsampling             : 4:2:0
Bit depth                      : 8 bits
Scan type                      : Interlaced
Scan order                     : Top Field First
Compression mode               : Lossy
Bits/(Pixel*Frame)             : 0.417
Stream size                    : 688 MiB (67%)

Audio #1
ID                             : 189 (0xBD)-128 (0x80)
Format                         : AC-3
Format/Info                    : Audio Coding 3
Mode extension                 : CM (complete main)
Format settings, Endianness    : Big
Muxing mode                    : DVD-Video
Duration                       : 22mn 16s
Bit rate mode                  : Constant
Bit rate                       : 448 Kbps
Channel(s)                     : 6 channels
Channel positions              : Front: L C R, Side: L R, LFE
Sampling rate                  : 48.0 KHz
Frame rate                     : 31.250 fps (1536 spf)
Compression mode               : Lossy
Stream size                    : 71.4 MiB (7%)

Audio #2
ID                             : 189 (0xBD)-161 (0xA1)
Format                         : PCM
Format settings, Endianness    : Big
Format settings, Sign          : Signed
Muxing mode                    : DVD-Video
Duration                       : 22mn 16s
Bit rate mode                  : Constant
Bit rate                       : 1 536 Kbps
Channel(s)                     : 2 channels
Sampling rate                  : 48.0 KHz
Bit depth                      : 20 bits
Stream size                    : 245 MiB (24%)

Text
ID                             : 189 (0xBD)-32 (0x20)
Format                         : RLE
Format/Info                    : Run-length encoding
Muxing mode                    : DVD-Video

Menu




Create a new paste based on this one


Comments: